<?xml version="1.0" standalone="no"?>
<!DOCTYPE svg PUBLIC "-//W3C//DTD SVG 1.1//EN" "http://www.w3.org/Graphics/SVG/1.1/DTD/svg11.dtd" >
<svg>
<metadata>
Created by FontForge 20090914 at Fri Feb 24 16:14:07 2017
 By www-data
Copyright (c) Laurenz Brunner. www.lineto.com, 2004. All rights reserved.
</metadata>
<defs>
<font id="AkkuratPro" horiz-adv-x="560" >
  <font-face 
    font-family="Akkurat Pro"
    font-weight="400"
    font-stretch="normal"
    units-per-em="1000"
    panose-1="2 0 5 3 4 0 0 2 0 4"
    ascent="800"
    descent="-200"
    x-height="506"
    cap-height="709"
    bbox="-15 -288.998 1125 935.002"
    underline-thickness="45"
    underline-position="-71"
    unicode-range="U+0020-U+FB02"
  />
<missing-glyph horiz-adv-x="588" 
d="M88 698h412v-698h-412v698zM425 74v549h-262v-549h262z" />
    <glyph glyph-name=".notdef" horiz-adv-x="588" 
d="M88 698h412v-698h-412v698zM425 74v549h-262v-549h262z" />
    <glyph glyph-name="space" unicode=" " horiz-adv-x="230" 
 />
    <glyph glyph-name="exclam" unicode="!" horiz-adv-x="331" 
d="M211 215h-58l-23 270v224h102v-224zM130 0v109h106v-109h-106z" />
    <glyph glyph-name="quotedbl" unicode="&#x22;" horiz-adv-x="444" 
d="M333 433h-53l-21 153v123h95v-123zM164 433h-53l-21 153v123h95v-123z" />
    <glyph glyph-name="numbersign" unicode="#" horiz-adv-x="752" 
d="M546 428l-22 -161h125v-77h-136l-26 -189h-78l26 189h-153l-27 -189h-78l26 189h-128v77h139l22 161h-128v78h139l26 189h78l-26 -189h153l27 189h78l-26 -189h125v-78h-136zM314 428l-22 -161h153l23 161h-154z" />
    <glyph glyph-name="dollar" unicode="$" 
d="M536 204c0 -28.667 -5.5 -54.1641 -16.5 -76.4971s-24.833 -41.833 -41.5 -58.5c-20.667 -20 -44.667 -35.5 -72 -46.5s-56.666 -18.167 -87.999 -21.5v-91h-58v91c-64 5.33301 -117 27 -159 65c-22 20 -39.333 43.833 -52 71.5s-19 57.834 -19 90.501h88
c0 -20.667 4.16699 -40.334 12.5 -59.001s19.833 -34.667 34.5 -48c13.333 -12 27.833 -21.333 43.5 -28s32.834 -11.334 51.501 -14.001v243c-6 1.33301 -12.167 2.33301 -18.5 3l-18.5 2c-24.667 2.66699 -47.667 8.83398 -69 18.501s-39.833 22 -55.5 37s-28 33 -37 54
s-13.5 44.5 -13.5 70.5c0 25.333 5.33301 49.666 16 72.999s25 43.666 43 60.999c22 21.333 45.667 37.166 71 47.499s52.666 16.833 81.999 19.5v92h58v-93c28 -3.33301 54 -10.166 78 -20.499s45.667 -24.833 65 -43.5c20.667 -20 36.5 -41.833 47.5 -65.5
s17.167 -50.167 18.5 -79.5h-89c-2 37.333 -14 67.333 -36 90c-10.667 11.333 -22.834 20.5 -36.501 27.5s-29.5 11.833 -47.5 14.5v-228l30 -4c26.667 -3.33301 51.5 -10 74.5 -20s43 -23 60 -39s30.167 -35.333 39.5 -58s14 -48.334 14 -77.001zM260 631.003
c-18.667 -2 -36 -6.33301 -52 -13s-30.667 -17 -44 -31c-18.667 -20.667 -28 -46.667 -28 -78c0 -30 9 -52.833 27 -68.5s40.667 -25.167 68 -28.5l29 -4v223zM448 202.003c0 32.667 -10.5 58.333 -31.5 77s-48.5 30 -82.5 34l-16 2v-236
c19.333 2 36.666 6.16699 51.999 12.5s29.333 15.5 42 27.5c10.667 10 19.334 21.667 26.001 35s10 29.333 10 48z" />
    <glyph glyph-name="percent" unicode="%" horiz-adv-x="919" 
d="M854 178c0 -23.333 -2.33301 -45 -7 -65s-12.667 -38.667 -24 -56c-13.333 -19.333 -30.666 -35.833 -51.999 -49.5s-48 -20.5 -80 -20.5s-58.667 6.83301 -80 20.5s-38.666 30.167 -51.999 49.5c-11.333 17.333 -19.333 36 -24 56s-7 41.667 -7 65
s2.33301 45.166 7 65.499s12.667 39.166 24 56.499c13.333 19.333 30.666 35.833 51.999 49.5s48 20.5 80 20.5s58.667 -6.83301 80 -20.5s38.666 -30.167 51.999 -49.5c11.333 -17.333 19.333 -36.166 24 -56.499s7 -42.166 7 -65.499zM230 -21l-54 41l515 704l55 -39z
M386 531c0 -23.333 -2.33301 -45 -7 -65s-12.667 -38.667 -24 -56c-13.333 -19.333 -30.666 -35.833 -51.999 -49.5s-48 -20.5 -80 -20.5s-58.667 6.83301 -80 20.5s-38.666 30.167 -51.999 49.5c-11.333 17.333 -19.333 36 -24 56s-7 41.667 -7 65s2.33301 45.166 7 65.499
s12.667 39.166 24 56.499c13.333 19.333 30.666 35.833 51.999 49.5s48 20.5 80 20.5s58.667 -6.83301 80 -20.5s38.666 -30.167 51.999 -49.5c11.333 -17.333 19.333 -36.166 24 -56.499s7 -42.166 7 -65.499zM777 178c0 20.667 -2 39.834 -6 57.501
s-11.667 32.167 -23 43.5c-6.66699 7.33301 -14.334 13.166 -23.001 17.499s-20 6.5 -34 6.5s-25.5 -2.16699 -34.5 -6.5s-16.833 -10.166 -23.5 -17.499c-11.333 -11.333 -19 -25.833 -23 -43.5s-6 -36.834 -6 -57.501s2 -39.667 6 -57s11.667 -31.666 23 -42.999
c6.66699 -7.33301 14.5 -13.166 23.5 -17.499s20.5 -6.5 34.5 -6.5s25.333 2.16699 34 6.5s16.334 10.166 23.001 17.499c11.333 11.333 19 25.666 23 42.999s6 36.333 6 57zM309 531c0 20.667 -2 39.834 -6 57.501s-11.667 32.167 -23 43.5
c-6.66699 7.33301 -14.334 13.166 -23.001 17.499s-20 6.5 -34 6.5s-25.5 -2.16699 -34.5 -6.5s-16.833 -10.166 -23.5 -17.499c-11.333 -11.333 -19 -25.833 -23 -43.5s-6 -36.834 -6 -57.501s2 -39.667 6 -57s11.667 -31.666 23 -42.999
c6.66699 -7.33301 14.5 -13.166 23.5 -17.499s20.5 -6.5 34.5 -6.5s25.333 2.16699 34 6.5s16.334 10.166 23.001 17.499c11.333 11.333 19 25.666 23 42.999s6 36.333 6 57z" />
    <glyph glyph-name="ampersand" unicode="&#x26;" horiz-adv-x="737" 
d="M602 332c0 -16 -1.00098 -33.166 -3.00098 -51.499s-5 -36.333 -9 -54s-9.16699 -34.334 -15.5 -50.001s-13.5 -29.5 -21.5 -41.5l121 -135h-108l-61 69c-25.333 -28.667 -55.833 -49.5 -91.5 -62.5s-72.5 -19.5 -110.5 -19.5c-30.667 0 -59.5 4.66699 -86.5 14
s-50.5 22.833 -70.5 40.5s-35.833 39.167 -47.5 64.5s-17.5 54 -17.5 86c0 37.333 8.83301 71.333 26.5 102s42.167 55.667 73.5 75c12.667 8.66699 24.334 16 35.001 22l-32.5 37c-10.333 12 -19.333 24.5 -27 37.5s-13.667 26.833 -18 41.5s-6.5 31.334 -6.5 50.001
c0 24.667 4.5 47 13.5 67s21.5 37.333 37.5 52s34.833 26 56.5 34s45.5 12 71.5 12s50.167 -3.83301 72.5 -11.5s41.5 -18.834 57.5 -33.501s28.5 -32.334 37.5 -53.001s13.5 -44 13.5 -70c0 -34 -7.83301 -64.333 -23.5 -91s-38.167 -48.667 -67.5 -66l-51 -32l147 -166
c6 10.667 10.667 22.834 14 36.501s5.83301 28.167 7.5 43.5s2.66699 31 3 47s0.5 31 0.5 45v34h153v-73h-73zM408.999 553.001c0 30 -8.66797 53.667 -26.001 71s-42 26 -74 26c-28 0 -50.667 -8.5 -68 -25.5s-26 -39.167 -26 -66.5c0 -14 2.5 -27.167 7.5 -39.5
s11.5 -24 19.5 -35s16.833 -21.333 26.5 -31s18.834 -19.5 27.501 -29.5c15.333 8 29.833 16 43.5 24s25.667 17 36 27s18.5 21.333 24.5 34s9 27.667 9 45zM267.998 334.001l-41 -26c-19.333 -13.333 -34.333 -29.833 -45 -49.5s-16 -41.167 -16 -64.5
c0 -18.667 3.33301 -35.834 10 -51.501s16 -29.167 28 -40.5s26 -20.166 42 -26.499s33.333 -9.5 52 -9.5c31.333 0 59.833 4.33301 85.5 13s48.167 25.667 67.5 51z" />
    <glyph glyph-name="quotesingle" unicode="'" horiz-adv-x="265" 
d="M159 433h-53l-21 153v123h95v-123z" />
    <glyph glyph-name="parenleft" unicode="(" horiz-adv-x="303" 
d="M235 -142c-27.333 30.667 -51.5 64.4961 -72.5 101.496s-38.5 75.667 -52.5 116s-24.667 81.333 -32 123s-11 82.834 -11 123.501s3.66699 81.834 11 123.501s18 82.667 32 123s31.5 79 52.5 116s45.167 70.833 72.5 101.5l53 -37
c-48 -63.333 -84.5 -129.666 -109.5 -198.999s-37.5 -145.333 -37.5 -228s12.5 -158.667 37.5 -228s61.5 -135.666 109.5 -198.999z" />
    <glyph glyph-name="parenright" unicode=")" horiz-adv-x="303" 
d="M236 322c0 -40.667 -3.66699 -81.8301 -11 -123.497s-18 -82.667 -32 -123s-31.5 -79 -52.5 -116s-45.167 -70.833 -72.5 -101.5l-53 37c48 63.333 84.5 129.666 109.5 198.999s37.5 145.333 37.5 228s-12.5 158.667 -37.5 228s-61.5 135.666 -109.5 198.999l53 37
c27.333 -30.667 51.5 -64.5 72.5 -101.5s38.5 -75.667 52.5 -116s24.667 -81.333 32 -123s11 -82.834 11 -123.501z" />
    <glyph glyph-name="asterisk" unicode="*" horiz-adv-x="533" 
d="M319 471l104 -129l-67 -48l-90 139l-89 -139l-67 50l104 127l-159 41l26 79l153 -60l-8 165h83l-10 -165l154 60l25 -79z" />
    <glyph glyph-name="plus" unicode="+" horiz-adv-x="681" 
d="M375 268v-263h-70v263h-240v69h240v247h70v-247h241v-69h-241z" />
    <glyph glyph-name="comma" unicode="," horiz-adv-x="294" 
d="M209 -1c0 -37.333 -7.16699 -69.001 -21.5 -95.001s-39.833 -46.667 -76.5 -62l-26 47c26 11.333 43.167 25.333 51.5 42s12.5 39.334 12.5 68.001h-62v117h122v-117z" />
    <glyph glyph-name="hyphen" unicode="-" horiz-adv-x="437" 
d="M70 262v79h297v-79h-297z" />
    <glyph glyph-name="period" unicode="." horiz-adv-x="294" 
d="M88 0v119h118v-119h-118z" />
    <glyph glyph-name="slash" unicode="/" horiz-adv-x="399" 
d="M85 -13h-68l308 735h68z" />
    <glyph glyph-name="zero" unicode="0" 
d="M512 348c0 -33.333 -1 -64.5 -3 -93.5s-6 -56 -12 -81s-14.333 -48 -25 -69s-24.667 -40.5 -42 -58.5c-17.333 -17.333 -38 -31.5 -62 -42.5s-53.333 -16.5 -88 -16.5s-64 5.5 -88 16.5s-44.667 25.167 -62 42.5c-17.333 18 -31.333 37.5 -42 58.5s-19 44 -25 69
s-10 52 -12 81s-3 60.167 -3 93.5s1 64.666 3 93.999s6 56.5 12 81.5s14.333 48 25 69s24.667 40.5 42 58.5c17.333 17.333 38 31.333 62 42s53.333 16 88 16s64 -5.33301 88 -16s44.667 -24.667 62 -42c17.333 -18 31.333 -37.5 42 -58.5s19 -44 25 -69
s10 -52.167 12 -81.5s3 -60.666 3 -93.999zM423 366c0 22 -0.333008 44.167 -1 66.5s-2.83398 43.666 -6.50098 63.999s-9.33398 39.166 -17.001 56.499s-18.5 32.666 -32.5 45.999c-10 9.33301 -22.167 17 -36.5 23s-30.833 9 -49.5 9s-35.167 -3 -49.5 -9
s-26.5 -13.667 -36.5 -23c-14 -13.333 -24.833 -28.666 -32.5 -45.999s-13.334 -36.166 -17.001 -56.499s-5.83398 -41.666 -6.50098 -63.999s-1 -44.5 -1 -66.5v-36c0 -22 0.333008 -44.167 1 -66.5s2.83398 -43.666 6.50098 -63.999s9.33398 -39.333 17.001 -57
s18.5 -32.834 32.5 -45.501c10 -9.33301 22.167 -17 36.5 -23s30.833 -9 49.5 -9s35.167 3 49.5 9s26.5 13.667 36.5 23c14 12.667 24.833 27.834 32.5 45.501s13.334 36.667 17.001 57s5.83398 41.666 6.50098 63.999s1 44.5 1 66.5v36z" />
    <glyph glyph-name="one" unicode="1" 
d="M281 0v598l-165 -121v95l170 123h82v-695h-87z" />
    <glyph glyph-name="two" unicode="2" 
d="M72 0v72.999l281 347c25.333 32 38 65.333 38 100c0 36 -9.83301 63.667 -29.5 83s-47.834 29 -84.501 29c-15.333 0 -30.166 -2.33301 -44.499 -7s-27 -12 -38 -22s-19.667 -23 -26 -39s-9.5 -35.333 -9.5 -58h-88c0 30 4.83301 57.5 14.5 82.5s23.5 46.5 41.5 64.5
s39.667 31.833 65 41.5s53.333 14.5 84 14.5c38 0 71.5 -7.16699 100.5 -21.5s52.167 -33.833 69.5 -58.5c10.667 -15.333 18.667 -31.666 24 -48.999s8 -37 8 -59c0 -28 -5 -53.833 -15 -77.5s-24.667 -47.167 -44 -70.5l-236 -293h306v-80h-417z" />
    <glyph glyph-name="three" unicode="3" 
d="M494 190c0 -27.333 -4.50195 -53.0029 -13.502 -77.0029s-22.167 -45 -39.5 -63c-18.667 -19.333 -41.5 -34.666 -68.5 -45.999s-60.167 -17 -99.5 -17c-34 0 -64.167 5.66699 -90.5 17s-49.166 26.666 -68.499 45.999c-18 18 -32.167 39.333 -42.5 64
s-15.833 53 -16.5 85h87c1.33301 -19.333 4.83301 -37.166 10.5 -53.499s14.167 -30.5 25.5 -42.5c10.667 -11.333 23.667 -20.666 39 -27.999s34 -11 56 -11c43.333 0 77 13.333 101 40c9.33301 10.667 17.166 23.167 23.499 37.5s9.5 31.166 9.5 50.499
c0 42.667 -13.167 74.834 -39.5 96.501s-60.833 32.5 -103.5 32.5h-42v79h42c40 0 71.333 10.333 94 31s34 49.334 34 86.001c0 32.667 -11 59.667 -33 81c-9.33301 9.33301 -21 17.333 -35 24s-30.667 10 -50 10s-35.666 -2.5 -48.999 -7.5s-25.333 -11.833 -36 -20.5
c-26.667 -22 -40.667 -54.667 -42 -98h-87c0.666992 34.667 6.83398 64.5 18.501 89.5s27.834 46.167 48.501 63.5c19.333 16 41.5 28.333 66.5 37s52.5 13 82.5 13c29.333 0 56.666 -5 81.999 -15s47.333 -23.667 66 -41c17.333 -16 31 -35.167 41 -57.5s15 -48.5 15 -78.5
c0 -16 -2.66699 -32.167 -8 -48.5s-12.5 -31.5 -21.5 -45.5s-19.833 -26.5 -32.5 -37.5s-26 -19.5 -40 -25.5c18.667 -6 35.167 -15 49.5 -27s26.5 -25.5 36.5 -40.5s17.5 -31.333 22.5 -49s7.5 -35.5 7.5 -53.5z" />
    <glyph glyph-name="four" unicode="4" 
d="M435 148v-148h-86v148h-319v89l264 458h90l-272 -470h237v207h86v-207h94v-77h-94z" />
    <glyph glyph-name="five" unicode="5" 
d="M510 229c0 -36.667 -4.83398 -70.0029 -14.501 -100.003s-24.167 -55.667 -43.5 -77c-18 -20 -40.333 -36 -67 -48s-58.334 -18 -95.001 -18c-34 0 -64.5 5.33301 -91.5 16s-50.167 25.334 -69.5 44.001c-39.333 38.667 -60.666 90 -63.999 154h85
c1.33301 -22 5.33301 -41.167 12 -57.5s15.667 -30.166 27 -41.499s25.333 -20.333 42 -27s36 -10 58 -10c24 0 44.167 4.16699 60.5 12.5s29.833 19.166 40.5 32.499c22.667 28.667 34 67.334 34 116.001c0 24 -3.16699 46.167 -9.5 66.5s-16.166 37.833 -29.499 52.5
c-11.333 12 -24.666 21.5 -39.999 28.5s-34 10.5 -56 10.5c-23.333 0 -45.333 -5.16699 -66 -15.5s-37 -25.5 -49 -45.5h-95l19 373h384v-77h-311l-11 -222c15.333 22.667 36 38.834 62 48.501s54 14.5 84 14.5c30.667 0 57.667 -5.16699 81 -15.5
s43.666 -24.166 60.999 -41.499c20.667 -21.333 36.167 -46.833 46.5 -76.5s15.5 -61.834 15.5 -96.501z" />
    <glyph glyph-name="six" unicode="6" 
d="M515 224c0 -35.333 -5.66797 -67.1699 -17.001 -95.5029s-26.666 -53.166 -45.999 -74.499c-18.667 -20 -41.667 -36.167 -69 -48.5s-59 -18.5 -95 -18.5c-39.333 0 -73.166 8.5 -101.499 25.5s-51.166 37.167 -68.499 60.5
c-12.667 17.333 -22.834 36.166 -30.501 56.499s-13.667 41.833 -18 64.5s-7.16602 46.167 -8.49902 70.5s-2 48.833 -2 73.5c0 50 2.83301 99.167 8.5 147.5s20.167 91.5 43.5 129.5c16.667 26 40 48.167 70 66.5s67 27.5 111 27.5c30 0 57.167 -5.16699 81.5 -15.5
s45.166 -24.166 62.499 -41.499c15.333 -15.333 28.166 -33.666 38.499 -54.999s16.166 -44.666 17.499 -69.999h-86c-1.33301 17.333 -5.5 32.333 -12.5 45s-15.833 23.667 -26.5 33c-10 8.66699 -21.333 15.334 -34 20.001s-27.334 7 -44.001 7c-22 0 -40.667 -4 -56 -12
s-28.333 -18 -39 -30c-11.333 -12.667 -20.166 -27.334 -26.499 -44.001s-11.166 -34.5 -14.499 -53.5s-5.5 -38.5 -6.5 -58.5s-1.5 -39 -1.5 -57c11.333 24 31.5 43.5 60.5 58.5s60.167 22.5 93.5 22.5c32 0 60.167 -5 84.5 -15s44.833 -23 61.5 -39
c22.667 -21.333 40 -47.5 52 -78.5s18 -64.833 18 -101.5zM428.999 222.996c0 24.667 -3.49902 47 -10.499 67s-17.167 37.333 -30.5 52c-10.667 12 -24.167 21.667 -40.5 29s-35.5 11 -57.5 11s-41 -4 -57 -12s-29.333 -18 -40 -30c-26 -29.333 -39 -68.333 -39 -117
s13.667 -87.667 41 -117c11.333 -12 24.833 -22 40.5 -30s34.5 -12 56.5 -12s40.667 3.66699 56 11s28.666 17 39.999 29c27.333 29.333 41 69 41 119z" />
    <glyph glyph-name="seven" unicode="7" 
d="M209 0h-92l289 618h-356v77h446v-77z" />
    <glyph glyph-name="eight" unicode="8" 
d="M505 191c0 -26.667 -4.16309 -50.5 -12.4961 -71.5s-19.5 -39.833 -33.5 -56.5c-20.667 -24.667 -46.5 -43.5 -77.5 -56.5s-64.833 -19.5 -101.5 -19.5s-70.5 6.5 -101.5 19.5s-56.833 31.833 -77.5 56.5c-14 16.667 -25.167 35.5 -33.5 56.5s-12.5 44.833 -12.5 71.5
c0 38 10.167 72.333 30.5 103s46.5 53.334 78.5 68.001c-28.667 15.333 -51.667 36.833 -69 64.5s-26 58.5 -26 92.5c0 28.667 5.16699 54.167 15.5 76.5s24.166 41.5 41.499 57.5c19.333 18 42.166 31.833 68.499 41.5s54.833 14.5 85.5 14.5s59.167 -4.83301 85.5 -14.5
s49.166 -23.5 68.499 -41.5c17.333 -16 31.166 -35.167 41.499 -57.5s15.5 -47.833 15.5 -76.5c0 -34 -8.66699 -64.833 -26 -92.5s-40.333 -49.167 -69 -64.5c32 -14.667 58.167 -37.334 78.5 -68.001s30.5 -65 30.5 -103zM405.004 519c0 36 -12.167 64.167 -36.5 84.5
s-53.833 30.5 -88.5 30.5s-64.167 -10.167 -88.5 -30.5s-36.5 -48.5 -36.5 -84.5c0 -16 2.83301 -31.333 8.5 -46s13.667 -27.5 24 -38.5s23.333 -19.667 39 -26s33.5 -9.5 53.5 -9.5s37.833 3.16699 53.5 9.5s28.667 15 39 26s18.333 23.833 24 38.5s8.5 30 8.5 46z
M419.004 195c0 37.333 -12.167 68.333 -36.5 93s-58.5 37 -102.5 37s-78.167 -12.333 -102.5 -37s-36.5 -55.667 -36.5 -93c0 -41.333 13 -73.833 39 -97.5s59.333 -35.5 100 -35.5s74 11.833 100 35.5s39 56.167 39 97.5z" />
    <glyph glyph-name="nine" unicode="9" 
d="M505 358c0 -50 -2.83398 -99.1631 -8.50098 -147.496s-20.167 -91.5 -43.5 -129.5c-16.667 -26 -40 -48.167 -70 -66.5s-67 -27.5 -111 -27.5c-30 0 -57.167 5 -81.5 15s-45.166 24 -62.499 42c-15.333 15.333 -28.166 33.666 -38.499 54.999
s-16.166 44.666 -17.499 69.999h86c1.33301 -17.333 5.5 -32.333 12.5 -45s15.833 -23.667 26.5 -33c20 -18 46 -27 78 -27c22 0 40.667 4 56 12s28.333 18 39 30c10.667 12.667 19.334 27.334 26.001 44.001s11.667 34.5 15 53.5s5.5 38.5 6.5 58.5s1.5 39 1.5 57
c-11.333 -24 -31.5 -43.5 -60.5 -58.5s-60.167 -22.5 -93.5 -22.5c-32 0 -60.167 5 -84.5 15s-44.833 23 -61.5 39c-22.667 21.333 -40 47.333 -52 78s-18 64.667 -18 102c0 35.333 5.66699 67.166 17 95.499s26.666 53.166 45.999 74.499c18.667 20 41.667 36.167 69 48.5
s59 18.5 95 18.5c39.333 0 73.166 -8.5 101.499 -25.5s51.166 -37.167 68.499 -60.5c12.667 -17.333 22.834 -36.333 30.501 -57s13.667 -42.334 18 -65.001s7.16602 -46 8.49902 -70s2 -48.333 2 -73zM409.999 473.004c0 48.667 -13.668 87.667 -41.001 117
c-11.333 12 -24.833 22 -40.5 30s-34.5 12 -56.5 12s-40.667 -3.66699 -56 -11s-28.666 -17 -39.999 -29c-27.333 -29.333 -41 -69 -41 -119c0 -24.667 3.5 -47 10.5 -67s17.167 -37.333 30.5 -52c10.667 -12 24.167 -21.667 40.5 -29s35.5 -11 57.5 -11s41 4 57 12
s29.333 18 40 30c26 28.667 39 67.667 39 117z" />
    <glyph glyph-name="colon" unicode=":" horiz-adv-x="304" 
d="M106 395v111h110v-111h-110zM106 -1v110h110v-110h-110z" />
    <glyph glyph-name="semicolon" unicode=";" horiz-adv-x="304" 
d="M106 394v112h110v-112h-110zM216 0c0 -36.667 -6.33301 -66.832 -19 -90.499s-36.334 -42.834 -71.001 -57.501l-23 44c24.667 10.667 40.834 24.167 48.501 40.5s11.5 37.5 11.5 63.5h-57v110h110v-110z" />
    <glyph glyph-name="less" unicode="&#x3c;" horiz-adv-x="472" 
d="M364 -13l-319 318l318 317l49 -48l-269 -269l269 -269z" />
    <glyph glyph-name="equal" unicode="=" horiz-adv-x="692" 
d="M105 344v77h482v-77h-482zM105 134v77h482v-77h-482z" />
    <glyph glyph-name="greater" unicode="&#x3e;" horiz-adv-x="472" 
d="M108 -13l-48 49l269 269l-269 269l49 48l318 -317z" />
    <glyph glyph-name="question" unicode="?" horiz-adv-x="504" 
d="M474 535c0 -40 -9.50098 -74.3311 -28.501 -102.998s-45.5 -55.667 -79.5 -81c-16 -12 -28.667 -23 -38 -33s-16.5 -20.167 -21.5 -30.5s-8.16699 -21.333 -9.5 -33s-2 -25.167 -2 -40.5v-25h-82v28c0 26.667 2.16699 49.334 6.5 68.001s11 35.5 20 50.5s20.5 29 34.5 42
s31 27.167 51 42.5s35.167 31.666 45.5 48.999s15.5 39.666 15.5 66.999c0 29.333 -10 54.666 -30 75.999c-11.333 11.333 -25 20.166 -41 26.499s-33 9.5 -51 9.5c-22 0 -41.333 -3.83301 -58 -11.5s-30.667 -18 -42 -31s-19.833 -28.167 -25.5 -45.5
s-8.5 -35.666 -8.5 -54.999h-90c0 28 4.83301 55.333 14.5 82s23.834 50.167 42.501 70.5s42 36.666 70 48.999s60.333 18.5 97 18.5c28 0 54.833 -4.33301 80.5 -13s48 -21.167 67 -37.5s34.167 -36.166 45.5 -59.499s17 -50 17 -80zM199.999 0.00195312v110h106v-110h-106
z" />
    <glyph glyph-name="at" unicode="@" horiz-adv-x="943" 
d="M875 380c0 -30 -3.66602 -61 -10.999 -93s-19 -61 -35 -87s-36.833 -47.333 -62.5 -64s-56.834 -25 -93.501 -25c-25.333 0 -47.166 6.16699 -65.499 18.5s-29.166 31.5 -32.499 57.5c-10 -22.667 -26.333 -40.667 -49 -54s-46.334 -20 -71.001 -20
c-26 0 -48.667 4.83301 -68 14.5s-35.666 23 -48.999 40s-23.333 37.167 -30 60.5s-10 48.666 -10 75.999c0 28 4 54.5 12 79.5s19.833 46.667 35.5 65s34.834 33 57.501 44s49 16.5 79 16.5c18.667 0 37 -4.66699 55 -14s31.667 -22.333 41 -39l11 42h67l-18 -253v-11
c0 -13.333 2.5 -25.333 7.5 -36s16.167 -16 33.5 -16c22 0 40.333 7.16699 55 21.5s26.5 31.666 35.5 51.999s15.333 41.833 19 64.5s5.5 42.334 5.5 59.001c0 41.333 -6.33301 77.5 -19 108.5s-30.334 57.833 -53.001 80.5c-26 26 -57.667 45.833 -95 59.5
s-79 20.5 -125 20.5c-46.667 0 -89 -7.16699 -127 -21.5s-71 -34.166 -99 -59.499c-34 -30 -60.167 -66.833 -78.5 -110.5s-27.5 -93.167 -27.5 -148.5c0 -46.667 7.83301 -89.834 23.5 -129.501s37.5 -74.167 65.5 -103.5c26.667 -27.333 58.167 -48.5 94.5 -63.5
s77.166 -22.5 122.499 -22.5s88 3.5 128 10.5s81 19.5 123 37.5v-73c-40 -19.333 -81 -32.5 -123 -39.5s-85 -10.5 -129 -10.5c-54.667 0 -104.5 8.33301 -149.5 25s-84.167 40.334 -117.5 71.001c-39.333 36 -69.666 80.167 -90.999 132.5s-32 110.5 -32 174.5
c0 62 10.167 117.167 30.5 165.5s48.833 90.166 85.5 125.499c37.333 36 81.166 64 131.499 84s106.5 30 168.5 30c57.333 0 110 -8.83301 158 -26.5s89 -43.5 123 -77.5c29.333 -28.667 52.166 -62.667 68.499 -102s24.5 -84.666 24.5 -135.999zM568.001 325
c0 14.667 -1.50195 29.002 -4.50195 43.002s-8 26.333 -15 37s-16.167 19.167 -27.5 25.5s-25.666 9.5 -42.999 9.5c-18 0 -33 -4.33301 -45 -13s-21.833 -19.5 -29.5 -32.5s-13 -27.667 -16 -44s-4.5 -31.833 -4.5 -46.5c0 -14 1.33301 -28 4 -42s7.16699 -26.667 13.5 -38
s15 -20.5 26 -27.5s24.833 -10.5 41.5 -10.5c20 0 36.333 4.16699 49 12.5s22.834 19.166 30.501 32.499s13 28.166 16 44.499s4.5 32.833 4.5 49.5z" />
    <glyph glyph-name="A" unicode="A" horiz-adv-x="621" 
d="M521 0l-58 168h-308l-57 -168h-90l250 709h104l251 -709h-92zM308 620l-125 -368h251z" />
    <glyph glyph-name="B" unicode="B" horiz-adv-x="668" 
d="M618 198c0 -28.667 -5.16602 -53.832 -15.499 -75.499s-23.166 -40.834 -38.499 -57.501c-20 -21.333 -45.833 -37.5 -77.5 -48.5s-65.167 -16.5 -100.5 -16.5h-286v709h283c33.333 0 65.666 -5.5 96.999 -16.5s56.666 -27.167 75.999 -48.5
c14 -15.333 25.167 -32.5 33.5 -51.5s12.5 -41.167 12.5 -66.5c0 -34 -8.66699 -65.667 -26 -95s-42.666 -50 -75.999 -62c18 -6 34.333 -14.833 49 -26.5s27.167 -25 37.5 -40s18.166 -31.5 23.499 -49.5s8 -36.333 8 -55zM511.001 519.002
c0 18.667 -3.49805 34.833 -10.498 48.5s-16.333 25.167 -28 34.5s-25.334 16.333 -41.001 21s-31.834 7 -48.501 7h-196v-223h199c37.333 0 67.5 8.66699 90.5 26s34.5 46 34.5 86zM527.003 204.001c0 20 -3.66602 37.667 -10.999 53s-17.333 28.333 -30 39
s-27.5 18.834 -44.5 24.501s-34.833 8.5 -53.5 8.5h-201v-247h199c19.333 0 37.666 2.33301 54.999 7s32.333 12 45 22s22.667 22.667 30 38s11 33.666 11 54.999z" />
    <glyph glyph-name="C" unicode="C" horiz-adv-x="634" 
d="M594 226c-1.33301 -33.333 -8.16602 -63.667 -20.499 -91s-28.833 -51.666 -49.5 -72.999c-21.333 -21.333 -48.666 -39.333 -81.999 -54s-69.333 -22 -108 -22c-36 0 -70.667 6.33301 -104 19s-62.666 31.667 -87.999 57c-19.333 18.667 -34.833 39.167 -46.5 61.5
s-20.667 45.833 -27 70.5s-10.5 50.5 -12.5 77.5s-3 54.5 -3 82.5s1 55.5 3 82.5s6.16699 52.833 12.5 77.5s15.333 48.167 27 70.5s27.167 42.833 46.5 61.5c25.333 25.333 54.666 44.333 87.999 57s68 19 104 19c38.667 0 74.5 -6.83301 107.5 -20.5
s60.167 -31.167 81.5 -52.5c20.667 -21.333 37.167 -45.333 49.5 -72s19.166 -56.667 20.499 -90h-92c-0.666992 19.333 -4.5 37.333 -11.5 54s-16.167 31.667 -27.5 45c-14 15.333 -32 27.833 -54 37.5s-46.667 14.5 -74 14.5c-24 0 -47.167 -4.66699 -69.5 -14
s-42.166 -22.666 -59.499 -39.999c-14.667 -15.333 -26 -32.333 -34 -51s-14 -38.167 -18 -58.5s-6.33301 -40.833 -7 -61.5s-1 -40.334 -1 -59.001s0.333008 -38.334 1 -59.001s3 -41.167 7 -61.5s10 -40 18 -59s19.333 -35.833 34 -50.5
c17.333 -17.333 37.166 -30.666 59.499 -39.999s45.5 -14 69.5 -14c27.333 0 52.166 5.16699 74.499 15.5s40.5 23.166 54.5 38.499c11.333 13.333 20.5 28.833 27.5 46.5s10.833 36.167 11.5 55.5h92z" />
    <glyph glyph-name="D" unicode="D" horiz-adv-x="677" 
d="M624 355c0 -25.333 -1.16699 -51.001 -3.5 -77.001s-6.66602 -51.167 -12.999 -75.5s-15.5 -47.666 -27.5 -69.999s-27.667 -42.833 -47 -61.5c-25.333 -24 -54 -41.833 -86 -53.5s-65.333 -17.5 -100 -17.5h-247v709h247c34.667 0 68 -6 100 -18s60.667 -30 86 -54
c19.333 -18.667 35 -39 47 -61s21.167 -45.167 27.5 -69.5s10.666 -49.333 12.999 -75s3.5 -51.167 3.5 -76.5zM534 354.999c0 18.667 -0.5 38.1689 -1.5 58.502s-3.66699 40.166 -8 59.499s-10.5 38 -18.5 56s-19 34.333 -33 49c-16.667 16.667 -36 29 -58 37
s-44.667 12 -68 12h-158v-545h158c23.333 0 46 4 68 12s41.333 20.333 58 37c14 14 25 30 33 48s14.167 36.833 18.5 56.5s7 39.667 8 60s1.5 40.166 1.5 59.499z" />
    <glyph glyph-name="E" unicode="E" horiz-adv-x="625" 
d="M100 0v709h474v-82h-385v-216h338v-84h-338v-245h385v-82h-474z" />
    <glyph glyph-name="F" unicode="F" horiz-adv-x="587" 
d="M189 627v-231h330v-84h-330v-312h-89v709h459v-82h-370z" />
    <glyph glyph-name="G" unicode="G" horiz-adv-x="680" 
d="M544 0l-15.002 85.001c-8.66699 -14.667 -19.834 -28 -33.501 -40s-29 -22.333 -46 -31s-35.167 -15.5 -54.5 -20.5s-39 -7.5 -59 -7.5c-36 0 -70.5 5.83301 -103.5 17.5s-62.167 30.167 -87.5 55.5c-36 35.333 -60.333 77.333 -73 126s-19 105 -19 169
c0 28 1.16699 55.5 3.5 82.5s6.83301 52.833 13.5 77.5s16 48.167 28 70.5s27.667 42.833 47 61.5c25.333 25.333 54.5 44.333 87.5 57s67.5 19 103.5 19c40 0 77.667 -6.83301 113 -20.5s65.333 -33.5 90 -59.5c17.333 -18 31.5 -38.333 42.5 -61
s17.167 -48.334 18.5 -77.001h-93c-1.33301 16.667 -4.66602 31 -9.99902 43s-12.666 23.667 -21.999 35c-16 19.333 -35.833 33.5 -59.5 42.5s-50.167 13.5 -79.5 13.5c-24 0 -47.167 -4.66699 -69.5 -14s-42.166 -22.666 -59.499 -39.999
c-14.667 -15.333 -26.167 -32.333 -34.5 -51s-14.5 -38.167 -18.5 -58.5s-6.5 -40.833 -7.5 -61.5s-1.5 -40.334 -1.5 -59.001c0 -18 0.5 -37.333 1.5 -58s3.66699 -41.5 8 -62.5s10.833 -41.333 19.5 -61s20.334 -36.834 35.001 -51.501
c17.333 -17.333 36.833 -30.166 58.5 -38.499s44.5 -12.5 68.5 -12.5c25.333 0 49.166 4.16699 71.499 12.5s41.5 20.5 57.5 36.5c23.333 23.333 39.333 51 48 83s13 64.333 13 97h-190v83h270v-382h-62z" />
    <glyph glyph-name="H" unicode="H" horiz-adv-x="718" 
d="M529 0v327h-340v-327h-89v709h89v-296h340v296h89v-709h-89z" />
    <glyph glyph-name="I" unicode="I" horiz-adv-x="291" 
d="M100 0v709h91v-709h-91z" />
    <glyph glyph-name="J" unicode="J" horiz-adv-x="493" 
d="M413 198c0 -32 -4.50098 -60.8311 -13.501 -86.498s-22 -47.834 -39 -66.501s-37.833 -33 -62.5 -43s-53 -15 -85 -15c-32.667 0 -61.167 5.5 -85.5 16.5s-45.166 25.5 -62.499 43.5c-20.667 21.333 -35.334 45.666 -44.001 72.999s-13 59 -13 95h90
c0 -24.667 2.33301 -46.667 7 -66s14.667 -36 30 -50c9.33301 -9.33301 20.333 -16.5 33 -21.5s27.667 -7.5 45 -7.5c40.667 0 69.334 11.5 86.001 34.5s25 54.167 25 93.5v511h89v-511z" />
    <glyph glyph-name="K" unicode="K" horiz-adv-x="662" 
d="M545 0l-212 368l-144 -168v-200h-89v709h89v-378l325 378h111l-231 -270l255 -439h-104z" />
    <glyph glyph-name="L" unicode="L" horiz-adv-x="544" 
d="M100 0v709h89v-626h341v-83h-430z" />
    <glyph glyph-name="M" unicode="M" horiz-adv-x="880" 
d="M695 0v598l-220 -588h-70l-220 593v-603h-85v709h128l214 -577l213 577h125v-709h-85z" />
    <glyph glyph-name="N" unicode="N" horiz-adv-x="734" 
d="M534 0l-348 570v-570h-86v709h100l348 -572v572h86v-709h-100z" />
    <glyph glyph-name="O" unicode="O" horiz-adv-x="670" 
d="M617 354c0 -28 -1.16699 -55.5 -3.5 -82.5s-6.66602 -52.833 -12.999 -77.5s-15.5 -48.167 -27.5 -70.5s-27.667 -42.833 -47 -61.5c-25.333 -25.333 -54.5 -44.333 -87.5 -57s-67.5 -19 -103.5 -19s-70.5 6.33301 -103.5 19s-62.167 31.667 -87.5 57
c-19.333 18.667 -35 39.167 -47 61.5s-21.167 45.833 -27.5 70.5s-10.666 50.5 -12.999 77.5s-3.5 54.5 -3.5 82.5s1.16699 55.5 3.5 82.5s6.66602 52.833 12.999 77.5s15.5 48.167 27.5 70.5s27.667 42.833 47 61.5c25.333 25.333 54.5 44.333 87.5 57s67.5 19 103.5 19
s70.5 -6.33301 103.5 -19s62.167 -31.667 87.5 -57c19.333 -18.667 35 -39.167 47 -61.5s21.167 -45.833 27.5 -70.5s10.666 -50.5 12.999 -77.5s3.5 -54.5 3.5 -82.5zM525 354c0 18.667 -0.5 38.334 -1.5 59.001s-3.5 41.167 -7.5 61.5s-10 39.833 -18 58.5
s-19.333 35.667 -34 51c-17.333 17.333 -37.166 30.5 -59.499 39.5s-45.5 13.5 -69.5 13.5s-47.167 -4.5 -69.5 -13.5s-42.166 -22.167 -59.499 -39.5c-14.667 -15.333 -26 -32.333 -34 -51s-14 -38.167 -18 -58.5s-6.5 -40.833 -7.5 -61.5s-1.5 -40.334 -1.5 -59.001
s0.5 -38.334 1.5 -59.001s3.5 -41.167 7.5 -61.5s10 -40 18 -59s19.333 -35.833 34 -50.5c17.333 -17.333 37.166 -30.5 59.499 -39.5s45.5 -13.5 69.5 -13.5s47.167 4.5 69.5 13.5s42.166 22.167 59.499 39.5c14.667 14.667 26 31.5 34 50.5s14 38.667 18 59
s6.5 40.833 7.5 61.5s1.5 40.334 1.5 59.001z" />
    <glyph glyph-name="P" unicode="P" horiz-adv-x="627" 
d="M597 495c0 -68 -19.665 -121.667 -58.998 -161c-19.333 -19.333 -43.333 -34 -72 -44s-62.667 -15 -102 -15h-175v-275h-89v709h263c42 0 77.667 -5.5 107 -16.5s53.666 -26.833 72.999 -47.5c17.333 -18.667 30.666 -40.5 39.999 -65.5s14 -53.167 14 -84.5z
M505.002 495c0 45.333 -13 78.833 -39 100.5s-61 32.5 -105 32.5h-172v-272h173c48 0 83.833 11.167 107.5 33.5s35.5 57.5 35.5 105.5z" />
    <glyph glyph-name="Q" unicode="Q" horiz-adv-x="670" 
d="M617 354c0 -28 -1.16699 -55.5 -3.5 -82.5s-6.66602 -52.833 -12.999 -77.5s-15.5 -48 -27.5 -70s-27.333 -42.333 -46 -61l64 -83l-59 -46l-65 84c-41.333 -21.333 -85.333 -32 -132 -32c-36 0 -70.5 6.33301 -103.5 19s-62.167 31.667 -87.5 57
c-19.333 18.667 -35 39.167 -47 61.5s-21.167 45.833 -27.5 70.5s-10.666 50.5 -12.999 77.5s-3.5 54.5 -3.5 82.5s1.16699 55.5 3.5 82.5s6.66602 52.833 12.999 77.5s15.5 48.167 27.5 70.5s27.667 42.833 47 61.5c25.333 25.333 54.5 44.333 87.5 57s67.5 19 103.5 19
s70.5 -6.33301 103.5 -19s62.167 -31.667 87.5 -57c19.333 -18.667 35 -39.167 47 -61.5s21.167 -45.833 27.5 -70.5s10.666 -50.5 12.999 -77.5s3.5 -54.5 3.5 -82.5zM525 354c0 18.667 -0.500977 38.335 -1.50098 59.002s-3.5 41.167 -7.5 61.5s-10 39.833 -18 58.5
s-19.333 35.667 -34 51c-17.333 17.333 -37.166 30.5 -59.499 39.5s-45.5 13.5 -69.5 13.5s-47.167 -4.5 -69.5 -13.5s-42.166 -22.167 -59.499 -39.5c-14.667 -15.333 -26 -32.333 -34 -51s-14 -38.167 -18 -58.5s-6.5 -40.833 -7.5 -61.5s-1.5 -40.334 -1.5 -59.001
s0.5 -38.334 1.5 -59.001s3.5 -41.167 7.5 -61.5s10 -40 18 -59s19.333 -35.833 34 -50.5c17.333 -17.333 37.166 -30.5 59.499 -39.5s45.5 -13.5 69.5 -13.5c26 0 52 5.66699 78 17l-84 108l58 45l85 -108c12.667 14.667 22.5 31.167 29.5 49.5s12.167 37.333 15.5 57
s5.5 39.167 6.5 58.5s1.5 38 1.5 56z" />
    <glyph glyph-name="R" unicode="R" horiz-adv-x="662" 
d="M519 0l-134.001 294.997h-196v-295h-89v709h278c42 0 77.667 -5.5 107 -16.5s53.666 -26.5 72.999 -46.5c17.333 -18 31 -38.667 41 -62s15 -50.666 15 -81.999s-4.66699 -58 -14 -80s-22.666 -42 -39.999 -60c-10.667 -11.333 -23.167 -21.166 -37.5 -29.499
s-30.166 -15.166 -47.499 -20.499l142 -312h-98zM521.999 501.997c0 44.667 -13.501 76.666 -40.501 95.999s-61.5 29 -103.5 29h-189v-249h189c20.667 0 39.834 2.16699 57.501 6.5s33 11.5 46 21.5s23 22.833 30 38.5s10.5 34.834 10.5 57.501z" />
    <glyph glyph-name="S" unicode="S" horiz-adv-x="635" 
d="M585 195c0 -30 -5.66406 -55.998 -16.9971 -77.998s-25.666 -41.667 -42.999 -59c-24.667 -24 -54.834 -41.833 -90.501 -53.5s-72.5 -17.5 -110.5 -17.5c-86 0 -153.667 22.667 -203 68c-22.667 21.333 -41 46.5 -55 75.5s-21 60.5 -21 94.5h93
c0 -21.333 4.66699 -41.833 14 -61.5s21.333 -36.5 36 -50.5c16 -15.333 36.333 -26.5 61 -33.5s49.667 -10.5 75 -10.5c27.333 0 52.166 3 74.499 9s41.5 16.667 57.5 32c11.333 10 20.166 21.5 26.499 34.5s9.5 29.167 9.5 48.5c0 28 -9.33301 52.333 -28 73
s-49 34.334 -91 41.001c-19.333 3.33301 -38 6.16602 -56 8.49902s-36.667 5.16602 -56 8.49902c-26.667 4 -51.5 10.667 -74.5 20s-43 21.833 -60 37.5s-30.333 34.334 -40 56.001s-14.5 46.5 -14.5 74.5c0 26.667 5.5 52.167 16.5 76.5s26.167 45.5 45.5 63.5
c50 46.667 112 70 186 70c34.667 0 68.167 -5.66699 100.5 -17s60.166 -28.333 83.499 -51c43.333 -41.333 66 -92 68 -152h-93c-1.33301 17.333 -5 33.666 -11 48.999s-14 28.666 -24 39.999c-13.333 15.333 -30.5 27.333 -51.5 36s-45.5 13 -73.5 13
c-25.333 0 -48.833 -3.83301 -70.5 -11.5s-40.167 -20.167 -55.5 -37.5c-9.33301 -10.667 -16.5 -22.167 -21.5 -34.5s-7.5 -26.5 -7.5 -42.5s3 -29.833 9 -41.5s14 -21.5 24 -29.5s21.333 -14.333 34 -19s25.667 -8 39 -10c20 -2.66699 39.833 -5.5 59.5 -8.5
s39.167 -6.16699 58.5 -9.5c59.333 -8.66699 107 -30.167 143 -64.5s54 -79.833 54 -136.5z" />
    <glyph glyph-name="T" unicode="T" horiz-adv-x="538" 
d="M314 626v-626h-90v626h-211v83h512v-83h-211z" />
    <glyph glyph-name="U" unicode="U" horiz-adv-x="678" 
d="M598 260c0 -44 -5.99805 -83 -17.998 -117s-29.333 -62.5 -52 -85.5s-49.834 -40.5 -81.501 -52.5s-67.5 -18 -107.5 -18s-75.833 6 -107.5 18s-58.834 29.5 -81.501 52.5s-40 51.5 -52 85.5s-18 73 -18 117v449h89v-451c0 -28 3.16699 -53.667 9.5 -77
s16.166 -43.166 29.499 -59.499s30.833 -29 52.5 -38s47.834 -13.5 78.501 -13.5s56.834 4.5 78.501 13.5s39.167 21.667 52.5 38s23.166 36.166 29.499 59.499s9.5 49 9.5 77v451h89v-449z" />
    <glyph glyph-name="V" unicode="V" horiz-adv-x="579" 
d="M336 0h-93l-239 709h92l196 -599l192 599h91z" />
    <glyph glyph-name="W" unicode="W" horiz-adv-x="862" 
d="M689 0h-95l-162 571l-164 -571h-94l-142 709h83l113 -578l164 568h80l164 -567l113 577h81z" />
    <glyph glyph-name="X" unicode="X" horiz-adv-x="584" 
d="M470 0l-180 291l-178 -291h-97l224 358l-220 351h99l178 -287l175 287h95l-221 -351l224 -358h-99z" />
    <glyph glyph-name="Y" unicode="Y" horiz-adv-x="566" 
d="M328 288v-288h-90v288l-238 421h100l186 -337l185 337h95z" />
    <glyph glyph-name="Z" unicode="Z" horiz-adv-x="612" 
d="M43 0v89l413 537h-409v83h515v-90l-414 -536h418v-83h-523z" />
    <glyph glyph-name="bracketleft" unicode="[" horiz-adv-x="311" 
d="M98 -114v871h188v-62h-119v-747h119v-62h-188z" />
    <glyph glyph-name="backslash" unicode="\" horiz-adv-x="400" 
d="M313 -13l-308 735h70l308 -735h-70z" />
    <glyph glyph-name="bracketright" unicode="]" horiz-adv-x="311" 
d="M25 -114v62h118v747h-118v62h188v-871h-188z" />
    <glyph glyph-name="asciicircum" unicode="^" horiz-adv-x="542" 
d="M388 405l-117 225l-118 -225h-88l168 317h76l168 -317h-89z" />
    <glyph glyph-name="underscore" unicode="_" horiz-adv-x="545" 
d="M25 -60v60h495v-60h-495z" />
    <glyph glyph-name="grave" unicode="`" horiz-adv-x="240" 
d="M195 551l-185 99l45 71l171 -123z" />
    <glyph glyph-name="a" unicode="a" horiz-adv-x="559" 
d="M517 5c-9.33301 -4.66699 -18.333 -7.83301 -27 -9.5s-18.334 -2.5 -29.001 -2.5c-22.667 0 -40.5 7.5 -53.5 22.5s-19.5 33.167 -19.5 54.5h-2c-14.667 -25.333 -36.5 -45.5 -65.5 -60.5s-61.5 -22.5 -97.5 -22.5c-29.333 0 -54.833 4.5 -76.5 13.5
s-39.667 20.833 -54 35.5s-25.166 31.334 -32.499 50.001s-11 37.667 -11 57c0 16 2.83301 33 8.5 51s15.5 34.5 29.5 49.5s32.5 27.833 55.5 38.5s51.833 17 86.5 19l154 9v37c0 12.667 -1.5 26 -4.5 40s-10.167 26.333 -21.5 37c-8.66699 8 -19.5 14.333 -32.5 19
s-29.833 7 -50.5 7c-23.333 0 -42.333 -2.83301 -57 -8.5s-26.334 -12.834 -35.001 -21.501c-16.667 -16.667 -25 -37 -25 -61h-83c0.666992 23.333 4.83398 43.5 12.501 60.5s18.167 32.167 31.5 45.5c17.333 18 39.833 31.5 67.5 40.5s57.167 13.5 88.5 13.5
c49.333 0 88.333 -9.16699 117 -27.5s49 -41.5 61 -69.5c10 -23.333 15 -49.333 15 -78v-245c0 -13.333 2.5 -22.333 7.5 -27s11.833 -7 20.5 -7h7c2.66699 0 5 0.333008 7 1l8 2v-63zM383 244.001l-135.997 -7.99805c-12.667 -0.666992 -25.667 -2.83398 -39 -6.50098
s-25.333 -9 -36 -16s-19.334 -16.167 -26.001 -27.5s-10 -25 -10 -41c0 -22.667 7.66699 -42.834 23 -60.501s41 -26.5 77 -26.5c19.333 0 38.166 3.33301 56.499 10s34.166 17 47.499 31c15.333 15.333 26.333 33 33 53s10 40.667 10 62v30z" />
    <glyph glyph-name="b" unicode="b" horiz-adv-x="595" 
d="M541 252c0 -42 -6.16309 -81.332 -18.4961 -117.999s-30.5 -67.334 -54.5 -92.001c-16.667 -17.333 -36.834 -30.833 -60.501 -40.5s-51.167 -14.5 -82.5 -14.5c-28.667 0 -57.334 6.83301 -86.001 20.5s-50.334 33.167 -65.001 58.5l-6 -66h-75v722h85v-275
c6.66699 11.333 15.5 21.5 26.5 30.5s23.167 16.5 36.5 22.5s27.166 10.667 41.499 14s28.5 5 42.5 5c30 0 56.5 -4.66699 79.5 -14s42.833 -21.666 59.5 -36.999c25.333 -24.667 44.5 -55.834 57.5 -93.501s19.5 -78.5 19.5 -122.5zM454.004 253.001
c0 23.333 -2.16699 46.498 -6.5 69.498s-11.833 43.833 -22.5 62.5s-25.334 33.667 -44.001 45s-42 17 -70 17c-18.667 0 -34.5 -3.16699 -47.5 -9.5s-24.5 -14.166 -34.5 -23.499c-21.333 -18.667 -36 -42.167 -44 -70.5s-12 -58.5 -12 -90.5s4 -62.167 12 -90.5
s22.667 -51.833 44 -70.5c10 -9.33301 21.5 -17.166 34.5 -23.499s28.833 -9.5 47.5 -9.5c28 0 51.333 5.66699 70 17s33.334 26.333 44.001 45s18.167 39.5 22.5 62.5s6.5 46.167 6.5 69.5z" />
    <glyph glyph-name="c" unicode="c" horiz-adv-x="532" 
d="M486 170c-2 -27.333 -7.99902 -51.335 -17.999 -72.002s-23.667 -39.334 -41 -56.001c-18 -17.333 -39 -30.833 -63 -40.5s-51.667 -14.5 -83 -14.5c-46 0 -83.833 9.16699 -113.5 27.5s-53.5 40.833 -71.5 67.5c-13.333 20 -23.666 44 -30.999 72s-11 61 -11 99
s3.66699 71 11 99s17.666 52 30.999 72c18 26.667 41.833 49.167 71.5 67.5s67.167 27.5 112.5 27.5c30 0 57.167 -4.66699 81.5 -14s45.166 -22.666 62.499 -39.999c17.333 -16.667 31.166 -35.5 41.499 -56.5s16.5 -45.5 18.5 -73.5h-86
c-2 17.333 -6.16699 32.5 -12.5 45.5s-14.166 24.167 -23.499 33.5c-10 9.33301 -22 16.833 -36 22.5s-29.333 8.5 -46 8.5c-19.333 0 -36 -3.16699 -50 -9.5s-26.667 -14.166 -38 -23.499c-20 -17.333 -33.5 -40.333 -40.5 -69s-10.5 -58.667 -10.5 -90
s3.5 -61.333 10.5 -90s20.5 -51.667 40.5 -69c11.333 -9.33301 24 -17.166 38 -23.499s30.667 -9.5 50 -9.5c17.333 0 33.5 3 48.5 9s27.5 14.333 37.5 25c9.33301 9.33301 16.833 20 22.5 32s9.5 26.333 11.5 43h86z" />
    <glyph glyph-name="d" unicode="d" horiz-adv-x="595" 
d="M427 0l-5.99609 65.999c-14.667 -25.333 -36.334 -44.833 -65.001 -58.5s-57.334 -20.5 -86.001 -20.5c-31.333 0 -58.833 4.83301 -82.5 14.5s-43.834 23.167 -60.501 40.5c-24 24.667 -42.167 55.334 -54.5 92.001s-18.5 76 -18.5 118c0 44 6.5 84.833 19.5 122.5
s32.167 68.834 57.5 93.501c16.667 15.333 36.5 27.666 59.5 36.999s49.5 14 79.5 14c14 0 28.167 -1.66699 42.5 -5s28.166 -8 41.499 -14s25.5 -13.5 36.5 -22.5s19.833 -19.167 26.5 -30.5v275h85v-722h-75zM422.004 252.999c0 32 -4 62.1689 -12 90.502
s-22.667 51.833 -44 70.5c-10 9.33301 -21.5 17.166 -34.5 23.499s-28.833 9.5 -47.5 9.5c-28 0 -51.333 -5.66699 -70 -17s-33.334 -26.333 -44.001 -45s-18.167 -39.5 -22.5 -62.5s-6.5 -46.167 -6.5 -69.5s2.16699 -46.5 6.5 -69.5s11.833 -43.833 22.5 -62.5
s25.334 -33.667 44.001 -45s42 -17 70 -17c18.667 0 34.5 3.16699 47.5 9.5s24.5 14.166 34.5 23.499c21.333 18.667 36 42.167 44 70.5s12 58.5 12 90.5z" />
    <glyph glyph-name="e" unicode="e" horiz-adv-x="551" 
d="M501 280l-0.00292969 -27.5c0 -9 -0.333008 -18.167 -1 -27.5h-358c0 -23.333 4.33301 -46.5 13 -69.5s20.667 -42.167 36 -57.5c24 -24 55 -36 93 -36c41.333 0 72.666 11 93.999 33c7.33301 7.33301 13.333 15 18 23s8.66699 18.667 12 32h83
c-3.33301 -25.333 -12 -49 -26 -71s-31.333 -40 -52 -54c-18 -12 -38 -21.333 -60 -28s-45 -10 -69 -10c-36 0 -68.167 6.83301 -96.5 20.5s-52.166 32.167 -71.499 55.5c-21.333 24.667 -37.166 53.167 -47.499 85.5s-15.5 66.5 -15.5 102.5c0 30.667 3 59.5 9 86.5
s16 52.167 30 75.5c18 30.667 43.333 56 76 76s71 30 115 30c32.667 0 61.834 -5.83301 87.501 -17.5s47.834 -27.5 66.501 -47.5c20 -22 35.667 -48 47 -78s17 -62 17 -96zM413.997 298c0 19.333 -2.66309 38.001 -7.99609 56.001s-13 33.667 -23 47
c-10.667 14 -24.334 25.167 -41.001 33.5s-36.334 12.5 -59.001 12.5c-23.333 0 -43.5 -4.33301 -60.5 -13s-31.333 -20 -43 -34s-20.334 -29.833 -26.001 -47.5s-8.83398 -35.834 -9.50098 -54.501h270z" />
    <glyph glyph-name="f" unicode="f" horiz-adv-x="366" 
d="M361 652c-13.333 1.33301 -26.166 3.00098 -38.499 5.00098s-27.5 3 -45.5 3c-22.667 0 -40.334 -6.33301 -53.001 -19s-19 -29.334 -19 -50.001v-85h146v-72h-146v-434h-85v434h-92v72h92v90c0 18.667 3.5 36.334 10.5 53.001s17 31.167 30 43.5s28.5 22 46.5 29
s38 10.5 60 10.5c17.333 0 33.833 -0.833008 49.5 -2.5s30.5 -3.83398 44.5 -6.50098v-71z" />
    <glyph glyph-name="g" unicode="g" horiz-adv-x="540" 
d="M525 -75c0 -22 -4.16602 -41.502 -12.499 -58.502s-18.5 -31.5 -30.5 -43.5s-26.167 -21.833 -42.5 -29.5s-33.5 -13.667 -51.5 -18s-36.333 -7.33301 -55 -9s-37 -2.5 -55 -2.5c-16.667 0 -33.834 0.833008 -51.501 2.5s-34.834 4.66699 -51.501 9
s-32.667 10.333 -48 18s-29 17.5 -41 29.5c-10.667 10.667 -19.334 23.334 -26.001 38.001s-10 32 -10 52c0 26.667 7 49.5 21 68.5s31 33.5 51 43.5c-17.333 6.66699 -31.5 17.667 -42.5 33s-16.5 32.666 -16.5 51.999c0 22.667 6.33301 42.334 19 59.001
s28.667 29.667 48 39c-18.667 16.667 -33 36.667 -43 60s-15 47 -15 71c0 28 4.33301 51.667 13 71s20.334 36.666 35.001 51.999c17.333 18 38.166 32 62.499 42s53.5 15 87.5 15c24 0 45.5 -2.66699 64.5 -8s36.167 -12.666 51.5 -21.999
c8.66699 22.667 22.167 40.167 40.5 52.5s39.5 18.5 63.5 18.5c4 0 8.16699 -0.166992 12.5 -0.5s8.5 -0.833008 12.5 -1.5v-69c-2.66699 0.666992 -5.66699 1 -9 1h-10c-16.667 0 -30.5 -4.16699 -41.5 -12.5s-17.833 -19.5 -20.5 -33.5
c10.667 -13.333 18.834 -28.5 24.501 -45.5s8.5 -36.833 8.5 -59.5c0 -24 -4.16699 -46.333 -12.5 -67s-19.5 -38.667 -33.5 -54c-16.667 -18 -37.5 -32.5 -62.5 -43.5s-54.5 -16.5 -88.5 -16.5c-17.333 0 -31.833 1 -43.5 3s-25.5 5.66699 -41.5 11
c-10.667 -3.33301 -20.5 -9 -29.5 -17s-13.5 -18.667 -13.5 -32c0 -10 2.5 -18 7.5 -24s11.333 -10.667 19 -14s15.834 -5.5 24.501 -6.5s17 -1.5 25 -1.5h100c30 0 60.333 -3.66699 91 -11s56 -21.333 76 -42c12 -12 21.667 -26.167 29 -42.5s11 -35.166 11 -56.499z
M384.001 338.998c0 32 -10.167 58.5 -30.5 79.5s-48.5 31.5 -84.5 31.5c-34.667 0 -62.5 -10.5 -83.5 -31.5s-31.5 -47.5 -31.5 -79.5s10.167 -58.833 30.5 -80.5s48.5 -32.5 84.5 -32.5c34.667 0 62.5 10.833 83.5 32.5s31.5 48.5 31.5 80.5zM442.001 -75.002
c0 18.667 -4.16797 33.3301 -12.501 43.9971s-19 18.667 -32 24s-27.333 8.66602 -43 9.99902s-31.167 2 -46.5 2h-117c-17.333 -5.33301 -32.333 -15.166 -45 -29.499s-19 -31.166 -19 -50.499c0 -21.333 7 -39 21 -53c8 -8 17.5 -14.333 28.5 -19
s22.5 -8.16699 34.5 -10.5s24.167 -3.83301 36.5 -4.5s24.166 -1 35.499 -1c10.667 0 22.334 0.333008 35.001 1s25.334 2.33398 38.001 5.00098s24.667 6.33398 36 11.001s21 11 29 19c14 14 21 31.333 21 52z" />
    <glyph glyph-name="h" unicode="h" horiz-adv-x="587" 
d="M417 0l0.00292969 321c0 38 -8.5 67.667 -25.5 89s-45.5 32 -85.5 32c-24.667 0 -46.334 -7.16699 -65.001 -21.5s-33.667 -33.166 -45 -56.499c-8.66699 -18.667 -13.834 -40 -15.501 -64s-2.5 -45.667 -2.5 -65v-235h-85v722h85v-283
c15.333 26 36.666 45.833 63.999 59.5s55.333 20.5 84 20.5c58 0 101.833 -16.333 131.5 -49s44.5 -78.334 44.5 -137.001v-333h-85z" />
    <glyph glyph-name="i" unicode="i" horiz-adv-x="273" 
d="M87 622v100h99v-100h-99zM93 0v506h87v-506h-87z" />
    <glyph glyph-name="j" unicode="j" horiz-adv-x="283" 
d="M97 622v100h99v-100h-99zM190 -71c0 -44 -11.166 -78.833 -33.499 -104.5s-57.5 -38.5 -105.5 -38.5c-13.333 0 -24.5 0.666992 -33.5 2s-19.833 4 -32.5 8v73c10.667 -2 21.167 -3.33301 31.5 -4s20.833 -1 31.5 -1c19.333 0 33.666 6.33301 42.999 19s14 27.667 14 45
v578h85v-577z" />
    <glyph glyph-name="k" unicode="k" horiz-adv-x="545" 
d="M433 0l-158 244l-97 -108v-136h-85v722h85v-471l229 255h103l-180 -200l199 -306h-96z" />
    <glyph glyph-name="l" unicode="l" horiz-adv-x="291" 
d="M256 0c-4 -1.33301 -9 -2.33301 -15 -3c-10 -2 -25 -3 -45 -3c-37.333 0 -64.333 10.667 -81 32s-25 52 -25 92v604h85v-599c0 -17.333 3.33301 -30.333 10 -39s18.667 -13 36 -13h28c2.66699 0 5 0.333008 7 1v-72z" />
    <glyph glyph-name="m" unicode="m" horiz-adv-x="878" 
d="M708 0l0.000976562 321.997c0 18 -1.66699 34.333 -5 49s-8.83301 27.167 -16.5 37.5s-18.167 18.5 -31.5 24.5s-30 9 -50 9c-16 0 -30.333 -3 -43 -9s-24 -14.333 -34 -25c-17.333 -17.333 -28.833 -38.166 -34.5 -62.499s-8.5 -49.833 -8.5 -76.5v-269h-85v322
c0 18 -1.5 34.333 -4.5 49s-8.33301 27.167 -16 37.5s-18.167 18.5 -31.5 24.5s-30 9 -50 9c-18 0 -34.167 -4.16699 -48.5 -12.5s-26.833 -19.166 -37.5 -32.499c-12.667 -16 -21.5 -36 -26.5 -60s-7.5 -46.667 -7.5 -68v-269h-85v506h74l8 -72
c13.333 28.667 33.166 50 59.499 64s53.833 21 82.5 21c38 0 69.833 -8.16699 95.5 -24.5s44.167 -40.166 55.5 -71.499c6.66699 16 15.5 30 26.5 42s23.5 22 37.5 30s28.833 14 44.5 18s31.5 6 47.5 6c57.333 0 99.833 -17 127.5 -51s41.5 -79 41.5 -135v-333h-85z" />
    <glyph glyph-name="n" unicode="n" horiz-adv-x="585" 
d="M417 0l0.00195312 321c0 38 -8.5 67.667 -25.5 89s-45.5 32 -85.5 32c-24.667 0 -46.334 -7.16699 -65.001 -21.5s-33.667 -33.166 -45 -56.499c-8.66699 -18.667 -13.834 -40 -15.501 -64s-2.5 -45.667 -2.5 -65v-235h-85v506h74l7 -76
c6.66699 14.667 15.667 27.5 27 38.5s24 20.167 38 27.5s28.667 13 44 17s30 6 44 6c58 0 101.667 -16.333 131 -49s44 -78.334 44 -137.001v-333h-85z" />
    <glyph glyph-name="o" unicode="o" horiz-adv-x="558" 
d="M504 253c0 -40 -5 -77.667 -15 -113s-29 -66.666 -57 -93.999c-18.667 -18 -40.834 -32.333 -66.501 -43s-54.5 -16 -86.5 -16s-60.833 5.33301 -86.5 16s-47.834 25 -66.501 43c-28 27.333 -47 58.666 -57 93.999s-15 73 -15 113s5 77.667 15 113s29 66.666 57 93.999
c18.667 18 40.834 32.333 66.501 43s54.5 16 86.5 16s60.833 -5.33301 86.5 -16s47.834 -25 66.501 -43c28 -27.333 47 -58.666 57 -93.999s15 -73 15 -113zM417 253c0 30 -3.33301 59 -10 87s-19 51.333 -37 70c-10.667 10.667 -23.5 19.334 -38.5 26.001
s-32.5 10 -52.5 10s-37.5 -3.33301 -52.5 -10s-27.833 -15.334 -38.5 -26.001c-18 -18.667 -30.333 -42 -37 -70s-10 -57 -10 -87s3.33301 -59 10 -87s19 -51.333 37 -70c10.667 -10.667 23.5 -19.334 38.5 -26.001s32.5 -10 52.5 -10s37.5 3.33301 52.5 10
s27.833 15.334 38.5 26.001c18 18.667 30.333 42 37 70s10 57 10 87z" />
    <glyph glyph-name="p" unicode="p" horiz-adv-x="595" 
d="M541 253c0 -44 -6.50391 -84.832 -19.5039 -122.499s-32.167 -68.834 -57.5 -93.501c-16.667 -15.333 -36.5 -27.666 -59.5 -36.999s-49.5 -14 -79.5 -14c-14 0 -28.167 1.66699 -42.5 5s-28.166 8 -41.499 14s-25.5 13.5 -36.5 22.5s-19.833 19.167 -26.5 30.5v-275h-85
v722h75l6 -66c14.667 25.333 36.334 44.833 65.001 58.5s57.334 20.5 86.001 20.5c31.333 0 58.833 -4.83301 82.5 -14.5s43.834 -23.167 60.501 -40.5c24 -24.667 42.167 -55.334 54.5 -92.001s18.5 -76 18.5 -118zM453.996 252.001c0 23.333 -2.16699 46.498 -6.5 69.498
s-11.833 43.833 -22.5 62.5s-25.334 33.667 -44.001 45s-42 17 -70 17c-18.667 0 -34.5 -3.16699 -47.5 -9.5s-24.5 -14.166 -34.5 -23.499c-21.333 -18.667 -36 -42.167 -44 -70.5s-12 -58.5 -12 -90.5s4 -62.167 12 -90.5s22.667 -51.833 44 -70.5
c10 -9.33301 21.5 -17.166 34.5 -23.499s28.833 -9.5 47.5 -9.5c28 0 51.333 5.66699 70 17s33.334 26.333 44.001 45s18.167 39.5 22.5 62.5s6.5 46.167 6.5 69.5z" />
    <glyph glyph-name="q" unicode="q" horiz-adv-x="595" 
d="M417 -217l-0.00390625 274.999c-6.66699 -11.333 -15.5 -21.5 -26.5 -30.5s-23.167 -16.5 -36.5 -22.5s-27.166 -10.667 -41.499 -14s-28.5 -5 -42.5 -5c-30 0 -56.5 4.66699 -79.5 14s-42.833 21.666 -59.5 36.999c-25.333 24.667 -44.5 55.834 -57.5 93.501
s-19.5 78.5 -19.5 122.5c0 42 6.16699 81.333 18.5 118s30.5 67.334 54.5 92.001c16.667 17.333 36.834 30.833 60.501 40.5s51.167 14.5 82.5 14.5c28.667 0 57.334 -6.83301 86.001 -20.5s50.334 -33.167 65.001 -58.5l6 66h75v-722h-85zM421.996 251.999
c0 32 -4 62.1689 -12 90.502s-22.667 51.833 -44 70.5c-10 9.33301 -21.5 17.166 -34.5 23.499s-28.833 9.5 -47.5 9.5c-28 0 -51.333 -5.66699 -70 -17s-33.334 -26.333 -44.001 -45s-18.167 -39.5 -22.5 -62.5s-6.5 -46.167 -6.5 -69.5s2.16699 -46.5 6.5 -69.5
s11.833 -43.833 22.5 -62.5s25.334 -33.667 44.001 -45s42 -17 70 -17c18.667 0 34.5 3.16699 47.5 9.5s24.5 14.166 34.5 23.499c21.333 18.667 36 42.167 44 70.5s12 58.5 12 90.5z" />
    <glyph glyph-name="r" unicode="r" horiz-adv-x="384" 
d="M366 423c-7.33301 1.33301 -15.168 2.33398 -23.501 3.00098s-16.166 1 -23.499 1c-20 0 -38.167 -3.83301 -54.5 -11.5s-30.166 -17.167 -41.499 -28.5c-10 -10 -18.167 -21.5 -24.5 -34.5s-11 -26.833 -14 -41.5s-5 -29.334 -6 -44.001s-1.5 -28.667 -1.5 -42v-225h-84
v506h75l7 -89c13.333 31.333 33.833 54.5 61.5 69.5s57.5 22.5 89.5 22.5c13.333 0 26.666 -1 39.999 -3v-83z" />
    <glyph glyph-name="s" unicode="s" horiz-adv-x="521" 
d="M468 147c0 -22 -3.66504 -41.4961 -10.998 -58.4961s-17 -31.833 -29 -44.5c-19.333 -20 -43.333 -34.5 -72 -43.5s-59.667 -13.5 -93 -13.5c-32 0 -62 4.16699 -90 12.5s-52.667 23.166 -74 44.499c-15.333 15.333 -27.333 33.166 -36 53.499s-13 41.166 -13 62.499h85
c0.666992 -17.333 4.66699 -32.5 12 -45.5s17 -24.167 29 -33.5c11.333 -8.66699 25.333 -14.667 42 -18s33 -5 49 -5c17.333 0 33.833 1.83301 49.5 5.5s30.167 11.167 43.5 22.5c7.33301 5.33301 13.333 13 18 23s7 20.667 7 32c0 19.333 -6.66699 35.333 -20 48
s-33 20.667 -59 24c-5.33301 0.666992 -12.666 1.66699 -21.999 3s-19.333 2.66602 -30 3.99902l-32.5 4c-11 1.33301 -20.833 2.66602 -29.5 3.99902c-38 6 -68.167 20.5 -90.5 43.5s-33.5 53.833 -33.5 92.5c0 19.333 4.16699 37.833 12.5 55.5s18.166 32.167 29.499 43.5
c16.667 17.333 37.667 31 63 41s54 15 86 15c34 0 65 -5.33301 93 -16s50.667 -26.667 68 -48c11.333 -13.333 20.166 -27.666 26.499 -42.999s9.5 -33.333 9.5 -54h-85c-0.666992 13.333 -3.83398 25.5 -9.50098 36.5s-12.167 19.833 -19.5 26.5c-20 18 -47.667 27 -83 27
c-10 0 -19.333 -0.333008 -28 -1s-19 -3.66699 -31 -9c-16 -6.66699 -28.5 -16.167 -37.5 -28.5s-13.5 -25.5 -13.5 -39.5c0 -21.333 6 -36.833 18 -46.5s28.667 -16.167 50 -19.5c14 -2 31 -4.16699 51 -6.5s43.667 -5.83301 71 -10.5c36 -6 66.5 -21.333 91.5 -46
s37.5 -56 37.5 -94z" />
    <glyph glyph-name="t" unicode="t" horiz-adv-x="385" 
d="M355 7c-11.333 -3.33301 -25.1689 -6.49805 -41.502 -9.49805s-36.166 -4.5 -59.499 -4.5c-27.333 0 -50 4 -68 12s-32.167 18.333 -42.5 31s-17.666 27.167 -21.999 43.5s-6.5 33.166 -6.5 50.499v303h-98v73h98v129l85 20v-149h150v-73h-150v-293
c0 -24.667 5.5 -42.334 16.5 -53.001s28.167 -16 51.5 -16c9.33301 0 19 0.333008 29 1s19.333 1.66699 28 3c10 1.33301 20 3 30 5v-73z" />
    <glyph glyph-name="u" unicode="u" horiz-adv-x="582" 
d="M415 0l-7.00098 76.999c-13.333 -29.333 -34.166 -51.5 -62.499 -66.5s-57.5 -22.5 -87.5 -22.5c-58 0 -101.333 16.333 -130 49s-43 78.334 -43 137.001v332h85v-320c0 -38 8 -67.667 24 -89s44 -32 84 -32c17.333 0 32.833 3.5 46.5 10.5s26.167 16.167 37.5 27.5
c16 16.667 27 37.667 33 63s9 51 9 77v263h85v-506h-74z" />
    <glyph glyph-name="v" unicode="v" horiz-adv-x="486" 
d="M291 0h-92l-187 506h89l146 -406l141 406h86z" />
    <glyph glyph-name="w" unicode="w" horiz-adv-x="767" 
d="M598 0h-82l-132 387l-135 -387h-81l-130 506h84l97 -382l129 376h73l127 -376l98 382h83z" />
    <glyph glyph-name="x" unicode="x" horiz-adv-x="498" 
d="M379 0l-133 199l-132 -199h-97l172 258l-170 248h100l132 -191l127 191h98l-171 -248l176 -258h-102z" />
    <glyph glyph-name="y" unicode="y" horiz-adv-x="498" 
d="M260 -104c-12 -32.667 -28.335 -58.833 -49.002 -78.5s-50 -29.5 -88 -29.5c-21.333 0 -38.666 1.33301 -51.999 4s-21.666 4.66699 -24.999 6v74c5.33301 -1.33301 11.333 -2.66602 18 -3.99902c5.33301 -1.33301 11.5 -2.33301 18.5 -3s14.833 -1 23.5 -1
c18 0 33.333 3.66699 46 11s22.667 20.666 30 39.999l32 85l-202 506h96l149 -399l142 399h89z" />
    <glyph glyph-name="z" unicode="z" horiz-adv-x="501" 
d="M53 0v75l294 357h-294v74h397v-75l-293 -357h296v-74h-400z" />
    <glyph glyph-name="braceleft" unicode="{" horiz-adv-x="349" 
d="M312 -119c-29.333 0 -54.001 3.66895 -74.001 11.002s-36 18.333 -48 33s-20.667 32.5 -26 53.5s-8 45.167 -8 72.5v156c0 14 -3.16699 25.5 -9.5 34.5s-14.333 16.5 -24 22.5s-20.5 10.333 -32.5 13s-23.667 4.66699 -35 6v72c10 1.33301 21 3.83301 33 7.5
s23 8.66699 33 15s18.333 14 25 23s10 19.833 10 32.5v154c0 28.667 2.33301 53.667 7 75s12.834 39.166 24.501 53.499s27.5 25 47.5 32s45.667 10.5 77 10.5h26v-63h-26c-36 0 -59.5 -8.5 -70.5 -25.5s-16.5 -42.5 -16.5 -76.5v-161
c0 -31.333 -8.16699 -55.833 -24.5 -73.5s-39.5 -29.167 -69.5 -34.5v-2c26.667 -6.66699 49 -18.834 67 -36.501s27 -40.834 27 -69.501v-161c0 -15.333 1.33301 -29.666 4 -42.999s7.33398 -25 14.001 -35s15.667 -18 27 -24s25.666 -9 42.999 -9h26v-63h-27z" />
    <glyph glyph-name="bar" unicode="|" horiz-adv-x="269" 
d="M100 -119v877h69v-877h-69z" />
    <glyph glyph-name="braceright" unicode="}" horiz-adv-x="349" 
d="M294 283c-11.333 -1.33301 -23.001 -3.33398 -35.001 -6.00098s-22.833 -6.83398 -32.5 -12.501s-17.667 -13.167 -24 -22.5s-9.5 -21 -9.5 -35v-156c0 -27.333 -2.66699 -51.5 -8 -72.5s-14 -38.833 -26 -53.5s-28 -25.667 -48 -33s-44.667 -11 -74 -11h-27v63h26
c17.333 0 31.666 3 42.999 9s20.333 14 27 24s11.334 21.667 14.001 35s4 27.666 4 42.999v161c0 28.667 9 51.834 27 69.501s40.333 29.834 67 36.501v2c-30 5.33301 -53.167 16.833 -69.5 34.5s-24.5 42.167 -24.5 73.5v161c0 34 -5.5 59.5 -16.5 76.5
s-34.5 25.5 -70.5 25.5h-26v63h26c30.667 0 56.167 -3.5 76.5 -10.5s36.333 -17.667 48 -32s19.834 -32.166 24.501 -53.499s7 -46.333 7 -75v-154c0 -12.667 3.33301 -23.5 10 -32.5s15 -16.667 25 -23s21 -11.333 33 -15s23 -6.16699 33 -7.5v-72z" />
    <glyph glyph-name="asciitilde" unicode="~" horiz-adv-x="639" 
d="M564 311c-16 -16 -30.335 -29.167 -43.002 -39.5s-24.667 -18.333 -36 -24s-22.5 -9.5 -33.5 -11.5s-22.5 -3 -34.5 -3c-18.667 0 -38 3.16699 -58 9.5s-39.667 14.5 -59 24.5c-13.333 7.33301 -26.666 13.5 -39.999 18.5s-26.333 7.5 -39 7.5
c-6.66699 0 -13.5 -0.5 -20.5 -1.5s-14.333 -3.16699 -22 -6.5s-16 -8.16602 -25 -14.499s-18.833 -15.166 -29.5 -26.499l-49 56c15.333 16 29.333 29.167 42 39.5s24.834 18.333 36.501 24s23 9.5 34 11.5s22.5 3 34.5 3c14 0 27.5 -1.5 40.5 -4.5
s26.167 -7.16699 39.5 -12.5s26.166 -11 38.499 -17s24.833 -11.333 37.5 -16c14 -5.33301 27 -8 39 -8c6.66699 0 13.5 0.333008 20.5 1s14.333 2.66699 22 6s15.834 8.16602 24.501 14.499s18.667 15.166 30 26.499z" />
    <glyph glyph-name="uni00A0" unicode="&#xa0;" horiz-adv-x="230" 
 />
    <glyph glyph-name="exclamdown" unicode="&#xa1;" horiz-adv-x="331" 
d="M95 396v109h106v-109h-106zM95 -204v224l23 270h58l21 -270v-224h-102z" />
    <glyph glyph-name="cent" unicode="&#xa2;" 
d="M496 271c-2 -27.333 -8 -51.8301 -18 -73.4971s-23.667 -40.834 -41 -57.501c-15.333 -15.333 -33 -27.5 -53 -36.5s-42.333 -14.833 -67 -17.5v-86h-61v87c-35.333 4 -64.833 14.167 -88.5 30.5s-44.167 36.833 -61.5 61.5c-15.333 23.333 -26.166 49.5 -32.499 78.5
s-9.5 60.167 -9.5 93.5s3 64.333 9 93s16.667 54.667 32 78c17.333 25.333 37.833 46.166 61.5 62.499s53.5 26.5 89.5 30.5v94h61v-93c24 -2.66699 45.667 -8.66699 65 -18s36.666 -21 51.999 -35c17.333 -16.667 31.166 -36 41.499 -58s16.5 -47 18.5 -75h-86
c-4 34.667 -16 62 -36 82c-14.667 14.667 -33 24 -55 28v-378c24.667 5.33301 44.334 15.666 59.001 30.999c18.667 20 30 46 34 78h86zM256 540.003c-20.667 -4.66699 -37.832 -13.167 -51.499 -25.5s-24.5 -27 -32.5 -44s-13.5 -35.833 -16.5 -56.5s-4.5 -41.667 -4.5 -63
s1.5 -42.333 4.5 -63s8.5 -39.667 16.5 -57s18.667 -32 32 -44s30.666 -20.333 51.999 -25v378z" />
    <glyph glyph-name="sterling" unicode="&#xa3;" 
d="M543 157c0 -54 -14.3301 -93.666 -42.9971 -118.999s-69 -38 -121 -38h-327v79c52.667 1.33301 79 28 79 80v172h-80v73h80v109c0 25.333 4.16699 49.833 12.5 73.5s20.666 44.667 36.999 63s36.666 33 60.999 44s52.166 16.5 83.499 16.5
c28.667 0 54.5 -4.66699 77.5 -14s42.667 -22 59 -38s29 -35 38 -57s13.5 -45.667 13.5 -71h-85c0 31.333 -9.33301 56.666 -28 75.999s-44.334 29 -77.001 29c-38 0 -65.167 -11.833 -81.5 -35.5s-24.5 -52.5 -24.5 -86.5v-109h161v-73h-161v-176
c0 -15.333 -3 -30.833 -9 -46.5s-17.333 -25.834 -34 -30.501v-2h208c25.333 0 44.333 7.33301 57 22s19.334 34.334 20.001 59.001h84z" />
    <glyph glyph-name="currency" unicode="&#xa4;" 
d="M479 -12l-70 78c-18.667 -13.333 -38.667 -23.5 -60 -30.5s-44.333 -10.5 -69 -10.5s-47.5 3.5 -68.5 10.5s-41.167 17.167 -60.5 30.5l-69 -78l-65 64l79 68c-13.333 18.667 -23.666 39.667 -30.999 63s-11 47 -11 71s3.66699 47.667 11 71s17.666 44.333 30.999 63
l-79 65l66 66l67 -77c38.667 26.667 82 40 130 40s91 -13.333 129 -40l69 78l65 -67l-78 -65c13.333 -18.667 23.666 -39.667 30.999 -63s11 -47 11 -71s-3.66699 -47.667 -11 -71s-17.666 -44.333 -30.999 -63l78 -68zM425 254c0 20.667 -3.32812 40.167 -9.99512 58.5
s-16.334 34.166 -29.001 47.499s-27.834 24 -45.501 32s-37.834 12 -60.501 12c-24.667 0 -46 -3.83301 -64 -11.5s-33 -18.167 -45 -31.5s-21 -29.166 -27 -47.499s-9 -38.166 -9 -59.499c0 -19.333 3.16699 -38.166 9.5 -56.499s15.666 -34.5 27.999 -48.5
s27.5 -25.167 45.5 -33.5s38.667 -12.5 62 -12.5s44 4 62 12s33.167 18.667 45.5 32s21.666 29.166 27.999 47.499s9.5 38.166 9.5 59.499z" />
    <glyph glyph-name="yen" unicode="&#xa5;" 
d="M366 382h132v-61h-174v-91h174v-61h-174v-169h-89v169h-163v61h163v91h-163v61h121l-178 313h94l174 -309l170 309h92z" />
    <glyph glyph-name="brokenbar" unicode="&#xa6;" horiz-adv-x="276" 
d="M100 450v309h76v-309h-76zM100 -50v308h76v-308h-76z" />
    <glyph glyph-name="section" unicode="&#xa7;" horiz-adv-x="562" 
d="M502 163c0 -15.333 -2.5 -29.667 -7.5 -43s-11.5 -25.833 -19.5 -37.5s-17.167 -22 -27.5 -31s-20.833 -16.833 -31.5 -23.5c13.333 -15.333 23.5 -31.833 30.5 -49.5s10.5 -37.5 10.5 -59.5c0 -23.333 -4.33301 -44.833 -13 -64.5s-20 -36.167 -34 -49.5
c-33.333 -32 -77 -48 -131 -48c-56 0 -101 18 -135 54c-30.667 32.667 -46 74.334 -46 125.001h83c0 -14 1.83301 -27.667 5.5 -41s10.5 -25.666 20.5 -36.999c8 -9.33301 18.5 -16.5 31.5 -21.5s26.5 -7.5 40.5 -7.5c26.667 0 49.167 7.83301 67.5 23.5
s27.5 37.167 27.5 64.5c0 17.333 -3.66699 32.5 -11 45.5s-17.666 25.167 -30.999 36.5l-202 171c-23.333 19.333 -40 39.833 -50 61.5s-15 46.167 -15 73.5c0 14.667 2.5 28.834 7.5 42.501s11.5 26.167 19.5 37.5s17.167 21.666 27.5 30.999s20.833 17.333 31.5 24
c-13.333 15.333 -23.5 31.833 -30.5 49.5s-10.5 37.5 -10.5 59.5c0 23.333 4.33301 44.5 13 63.5s20 35.167 34 48.5c16 15.333 35.167 27.5 57.5 36.5s46.833 13.5 73.5 13.5c56 0 101 -18 135 -54c30.667 -32.667 46 -74.334 46 -125.001h-83
c0 14 -1.83301 27.667 -5.5 41s-10.5 25.666 -20.5 36.999c-8 9.33301 -18.5 16.5 -31.5 21.5s-26.5 7.5 -40.5 7.5c-26.667 0 -49.167 -7.83301 -67.5 -23.5s-27.5 -37.167 -27.5 -64.5c0 -17.333 3.66699 -32.5 11 -45.5s17.666 -25.167 30.999 -36.5l202 -171
c23.333 -19.333 40 -39.833 50 -61.5s15 -46.167 15 -73.5zM200 393.999c-17.333 -9.33301 -30.5 -21.666 -39.5 -36.999s-13.5 -31.666 -13.5 -48.999c0 -14 3 -27.667 9 -41s15 -25 27 -35l184 -158c17.333 9.33301 30.5 21.666 39.5 36.999s13.5 31.666 13.5 48.999
c0 14 -3 27.667 -9 41s-15 25 -27 35z" />
    <glyph glyph-name="dieresis" unicode="&#xa8;" horiz-adv-x="290" 
d="M187 599v92h92v-92h-92zM11 599v92h92v-92h-92z" />
    <glyph glyph-name="copyright" unicode="&#xa9;" horiz-adv-x="858" 
d="M790 355c0 -51.333 -9.16699 -99.333 -27.5 -144s-43.5 -83.667 -75.5 -117s-70 -59.5 -114 -78.5s-92 -28.5 -144 -28.5s-100 9.5 -144 28.5s-82 45 -114 78s-57.167 71.833 -75.5 116.5s-27.5 92.667 -27.5 144s9.16699 99.333 27.5 144s43.5 83.667 75.5 117
s70 59.5 114 78.5s92 28.5 144 28.5s100 -9.5 144 -28.5s82 -45 114 -78s57.167 -71.833 75.5 -116.5s27.5 -92.667 27.5 -144zM723 355c0 44 -7 84.5 -21 121.5s-33.833 69 -59.5 96s-56.667 48 -93 63s-76.5 22.5 -120.5 22.5s-84.167 -7.66699 -120.5 -23
s-67.333 -36.5 -93 -63.5s-45.5 -59 -59.5 -96s-21 -77.5 -21 -121.5s7 -84.5 21 -121.5s33.833 -69 59.5 -96s56.667 -48 93 -63s76.5 -22.5 120.5 -22.5s84.167 7.66699 120.5 23s67.333 36.5 93 63.5s45.5 59 59.5 96s21 77.5 21 121.5zM601 300
c-2 -21.333 -7.66797 -40.8291 -17.001 -58.4961s-21.333 -32.834 -36 -45.501s-31.667 -22.5 -51 -29.5s-40 -10.5 -62 -10.5c-31.333 0 -58.833 6.66699 -82.5 20s-43.167 30.666 -58.5 51.999c-14 20 -23.833 39.667 -29.5 59s-8.5 41.666 -8.5 66.999
c0 26.667 4 52 12 76s19.667 45 35 63s34 32.333 56 43s47.333 16 76 16c22.667 0 43.834 -3.5 63.501 -10.5s36.834 -17 51.501 -30s26.334 -28.333 35.001 -46s14 -36.834 16 -57.501h-76c-3.33301 27.333 -13.5 47.333 -30.5 60s-36.833 19 -59.5 19
c-15.333 0 -29.333 -3.16699 -42 -9.5s-23.334 -14.833 -32.001 -25.5c-10.667 -13.333 -18.334 -28.5 -23.001 -45.5s-7 -34.5 -7 -52.5s2.16699 -35.5 6.5 -52.5s11.833 -32.167 22.5 -45.5c8.66699 -10.667 19.5 -19.167 32.5 -25.5s27.167 -9.5 42.5 -9.5
c22.667 0 42.5 6.33301 59.5 19s27.167 32.667 30.5 60h76z" />
    <glyph glyph-name="ordfeminine" unicode="&#xaa;" horiz-adv-x="484" 
d="M420 315c-7.33301 -4 -14.5029 -6.66602 -21.5029 -7.99902s-14.5 -2 -22.5 -2c-17.333 0 -31 5.5 -41 16.5s-15.667 24.167 -17 39.5c-11.333 -18.667 -27.666 -33.334 -48.999 -44.001s-45.333 -16 -72 -16c-22 0 -41.5 3.33301 -58.5 10s-31 15.667 -42 27
s-19.333 24.166 -25 38.499s-8.5 29.166 -8.5 44.499c0 12.667 2.33301 25.834 7 39.501s12.334 26.334 23.001 38.001s24.834 21.667 42.501 30s39.834 13.166 66.501 14.499l113 7v26c0 9.33301 -0.833008 19.5 -2.5 30.5s-6.83398 20.167 -15.501 27.5
c-6 5.33301 -14 9.83301 -24 13.5s-22.667 5.5 -38 5.5c-17.333 0 -31.333 -2 -42 -6s-19.334 -9.33301 -26.001 -16c-12 -12 -18 -28 -18 -48h-67c0.666992 22 5.16699 41 13.5 57s19.5 29 33.5 39s30.167 17.5 48.5 22.5s37.5 7.5 57.5 7.5c38 0 68 -7.16699 90 -21.5
s37.667 -32.166 47 -53.499c4 -9.33301 6.66699 -18.833 8 -28.5s2 -20.167 2 -31.5v-186c0 -10 1.83301 -16.5 5.5 -19.5s8.5 -4.5 14.5 -4.5c4.66699 0 8.33398 0.333008 11.001 1c2.66699 0 5 0.333008 7 1v-51zM314.997 496.001l-99.999 -5.99805
c-10 -0.666992 -19.833 -2.33398 -29.5 -5.00098s-18.334 -6.66699 -26.001 -12s-14 -12 -19 -20s-7.5 -18 -7.5 -30c0 -16.667 5.5 -31.5 16.5 -44.5s30.167 -19.5 57.5 -19.5c14.667 0 28.5 2.33301 41.5 7s24.5 12.334 34.5 23.001
c11.333 11.333 19.5 24.666 24.5 39.999s7.5 30.666 7.5 45.999v21z" />
    <glyph glyph-name="guillemotleft" unicode="&#xab;" horiz-adv-x="550" 
d="M441 68l-164 230l164 230l53 -38l-111 -191l112 -191zM209 68l-164 230l164 230l53 -38l-111 -191l112 -191z" />
    <glyph glyph-name="logicalnot" unicode="&#xac;" horiz-adv-x="625" 
d="M462 99v165h-407v77h485v-242h-78z" />
    <glyph glyph-name="uni00AD" unicode="&#xad;" horiz-adv-x="437" 
d="M70 262v79h297v-79h-297z" />
    <glyph glyph-name="registered" unicode="&#xae;" horiz-adv-x="858" 
d="M790 355c0 -51.333 -9.16699 -99.333 -27.5 -144s-43.5 -83.667 -75.5 -117s-70 -59.5 -114 -78.5s-92 -28.5 -144 -28.5s-100 9.5 -144 28.5s-82 45 -114 78s-57.167 71.833 -75.5 116.5s-27.5 92.667 -27.5 144s9.16699 99.333 27.5 144s43.5 83.667 75.5 117
s70 59.5 114 78.5s92 28.5 144 28.5s100 -9.5 144 -28.5s82 -45 114 -78s57.167 -71.833 75.5 -116.5s27.5 -92.667 27.5 -144zM723 355c0 44 -7 84.5 -21 121.5s-33.833 69 -59.5 96s-56.667 48 -93 63s-76.5 22.5 -120.5 22.5s-84.167 -7.66699 -120.5 -23
s-67.333 -36.5 -93 -63.5s-45.5 -59 -59.5 -96s-21 -77.5 -21 -121.5s7 -84.5 21 -121.5s33.833 -69 59.5 -96s56.667 -48 93 -63s76.5 -22.5 120.5 -22.5s84.167 7.66699 120.5 23s67.333 36.5 93 63.5s45.5 59 59.5 96s21 77.5 21 121.5zM510 169l-64 141h-75v-141h-67
v383h141c18 0 35.333 -2.66699 52 -8s31.167 -13 43.5 -23s22.166 -22.5 29.499 -37.5s11 -32.167 11 -51.5c0 -25.333 -5.66699 -47.5 -17 -66.5s-28.666 -33.833 -51.999 -44.5l71 -152h-73zM511 432c0 19.333 -6.5 33.834 -19.5 43.501s-28.5 14.5 -46.5 14.5h-75v-118
h75c20 0 36 4.66699 48 14s18 24.666 18 45.999z" />
    <glyph glyph-name="macron" unicode="&#xaf;" horiz-adv-x="296" 
d="M9 608v68h278v-68h-278z" />
    <glyph glyph-name="degree" unicode="&#xb0;" horiz-adv-x="461" 
d="M396 558c0 -24 -4.16699 -46 -12.5 -66s-20 -37.333 -35 -52s-32.667 -26 -53 -34s-42.166 -12 -65.499 -12s-45.166 4 -65.499 12s-37.833 19.333 -52.5 34s-26.167 32 -34.5 52s-12.5 42 -12.5 66s4.16699 46 12.5 66s19.833 37.333 34.5 52s32.167 26 52.5 34
s42.166 12 65.499 12s45.166 -4 65.499 -12s38 -19.333 53 -34s26.667 -32 35 -52s12.5 -42 12.5 -66zM321 558c0 28 -8.66699 50.5 -26 67.5s-39 25.5 -65 25.5s-47.5 -8.5 -64.5 -25.5s-25.5 -39.5 -25.5 -67.5s8.5 -50.5 25.5 -67.5s38.5 -25.5 64.5 -25.5
s47.667 8.5 65 25.5s26 39.5 26 67.5z" />
    <glyph glyph-name="plusminus" unicode="&#xb1;" horiz-adv-x="569" 
d="M320 332v-187h-70v187h-185v70h185v185h70v-185h184v-70h-184zM65 0v69h439v-69h-439z" />
    <glyph glyph-name="twosuperior" unicode="&#xb2;" horiz-adv-x="412" 
d="M73 343l0.000976562 63.002l155 130c11.333 9.33301 20.666 19 27.999 29s11 22.667 11 38c0 10 -2.66699 18.333 -8 25c-5.33301 9.33301 -12.833 15.833 -22.5 19.5s-20.5 5.5 -32.5 5.5c-22 0 -38.5 -6.33301 -49.5 -19s-17.167 -29.667 -18.5 -51h-71
c0.666992 20.667 4.5 39.167 11.5 55.5s16.833 30.333 29.5 42s27.5 20.5 44.5 26.5s35.5 9 55.5 9c18 0 35 -2.5 51 -7.5s29.833 -12.5 41.5 -22.5s21 -22.333 28 -37s10.5 -31.334 10.5 -50.001c0 -14.667 -2 -27.5 -6 -38.5s-9.5 -21.167 -16.5 -30.5
s-15.167 -18.333 -24.5 -27s-19.333 -17.334 -30 -26.001l-81 -68h168v-66h-274z" />
    <glyph glyph-name="threesuperior" unicode="&#xb3;" horiz-adv-x="414" 
d="M349 447c0 -15.333 -2.33203 -28.501 -6.99902 -39.501s-10.667 -20.833 -18 -29.5c-14 -15.333 -31.167 -26.166 -51.5 -32.499s-42.166 -9.5 -65.499 -9.5c-22 0 -42.833 3.66699 -62.5 11s-36.167 18.666 -49.5 33.999c-8.66699 10 -15.834 21.667 -21.501 35
s-8.5 28.333 -8.5 45h69c0.666992 -22 7.66699 -38.833 21 -50.5s30.666 -17.5 51.999 -17.5c19.333 0 36 4 50 12s21 21.667 21 41c0 16.667 -5.16699 30.167 -15.5 40.5s-27.166 15.5 -50.499 15.5h-28v57h22c5.33301 0 10.333 0.166992 15 0.5s10.334 1.5 17.001 3.5
c21.333 6 32 22.333 32 49c0 14.667 -6.16699 26.5 -18.5 35.5s-27.166 13.5 -44.499 13.5c-8 0 -16 -1.16699 -24 -3.5s-15.333 -6 -22 -11s-12.334 -11.5 -17.001 -19.5s-7 -17.667 -7 -29h-69c0 18.667 3.16699 34.667 9.5 48s14.833 25 25.5 35
c13.333 12 28.833 21 46.5 27s37.167 9 58.5 9c23.333 0 44.5 -3.5 63.5 -10.5s34.5 -17.833 46.5 -32.5c7.33301 -8.66699 13.166 -18.334 17.499 -29.001s6.5 -23 6.5 -37c0 -16 -5 -32 -15 -48s-23.667 -26 -41 -30c19.333 -5.33301 34.666 -16.166 45.999 -32.499
s17 -33.166 17 -50.499z" />
    <glyph glyph-name="acute" unicode="&#xb4;" horiz-adv-x="244" 
d="M45 551l-30 47l170 123l45 -71z" />
    <glyph glyph-name="mu" unicode="&#xb5;" horiz-adv-x="590" 
d="M423 0l-7.00098 77c-13.333 -29.333 -34.166 -51.5 -62.499 -66.5s-57.5 -22.5 -87.5 -22.5c-17.333 0 -34 2.5 -50 7.5s-28.667 11.167 -38 18.5v-214h-85v706h85v-320c0 -38 8 -67.667 24 -89s44 -32 84 -32c17.333 0 32.833 3.5 46.5 10.5s26.167 16.167 37.5 27.5
c16 16.667 27 37.667 33 63s9 51 9 77v263h85v-506h-74z" />
    <glyph glyph-name="paragraph" unicode="&#xb6;" horiz-adv-x="657" 
d="M513 640v-765h-73v765h-112v-765h-75v457c-26 0 -50.5 5 -73.5 15s-43 23.5 -60 40.5s-30.333 37 -40 60s-14.5 47.5 -14.5 73.5s4.83301 50.333 14.5 73s23 42.5 40 59.5s37 30.5 60 40.5s47.5 15 73.5 15h329v-69h-69z" />
    <glyph glyph-name="periodcentered" unicode="&#xb7;" horiz-adv-x="298" 
d="M90 247v119h118v-119h-118z" />
    <glyph glyph-name="cedilla" unicode="&#xb8;" horiz-adv-x="174" 
d="M96 -235l-88 41l79 135h78z" />
    <glyph glyph-name="onesuperior" unicode="&#xb9;" horiz-adv-x="310" 
d="M147 345v281l-92 -63v79l97 67h66v-364h-71z" />
    <glyph glyph-name="ordmasculine" unicode="&#xba;" horiz-adv-x="484" 
d="M413 505c0 -30.667 -3.66699 -59.5 -11 -86.5s-21.666 -51.167 -42.999 -72.5c-14 -14 -30.833 -25.167 -50.5 -33.5s-41.834 -12.5 -66.501 -12.5s-46.667 4.16699 -66 12.5s-36 19.5 -50 33.5c-21.333 21.333 -35.833 45.5 -43.5 72.5s-11.5 55.833 -11.5 86.5
s3.83301 59.334 11.5 86.001s22.167 50.667 43.5 72c14 14 30.667 25.167 50 33.5s41.333 12.5 66 12.5s46.834 -4.16699 66.501 -12.5s36.5 -19.5 50.5 -33.5c21.333 -21.333 35.666 -45.333 42.999 -72s11 -55.334 11 -86.001zM343 505c0 22.667 -2.33301 44.5 -7 65.5
s-13.667 38.5 -27 52.5c-16 17.333 -38.333 26 -67 26c-15.333 0 -28.333 -2.33301 -39 -7s-19.667 -11 -27 -19c-13.333 -14 -22.333 -31.5 -27 -52.5s-7 -42.833 -7 -65.5s2.33301 -44.667 7 -66s13.667 -39 27 -53c7.33301 -8 16.333 -14.333 27 -19s23.667 -7 39 -7
c28.667 0 51 8.66699 67 26c13.333 14 22.333 31.667 27 53s7 43.333 7 66z" />
    <glyph glyph-name="guillemotright" unicode="&#xbb;" horiz-adv-x="550" 
d="M341 68l-54 40l112 191l-111 191l53 38l164 -230zM109 68l-54 40l112 191l-111 191l53 38l164 -230z" />
    <glyph glyph-name="onequarter" unicode="&#xbc;" horiz-adv-x="860" 
d="M736 75v-75h-69v75h-178v69l143 225h81l-148 -235h102v78h69v-78h59v-59h-59zM194 -21l-54 41l515 704l55 -39zM176 345v281l-92 -63v79l97 67h66v-364h-71z" />
    <glyph glyph-name="onehalf" unicode="&#xbd;" horiz-adv-x="909" 
d="M530 -1l0.000976562 63.002l155 130c11.333 9.33301 20.666 19 27.999 29s11 22.667 11 38c0 5.33301 -0.833008 10 -2.5 14s-3.5 7.66699 -5.5 11c-5.33301 8.66699 -12.833 15 -22.5 19s-20.5 6 -32.5 6c-22 0 -38.667 -6.33301 -50 -19s-17.333 -29.667 -18 -51h-71
c1.33301 42 15 74.667 41 98s59.333 35 100 35c18 0 35 -2.5 51 -7.5s29.833 -12.5 41.5 -22.5s21 -22.333 28 -37s10.5 -31.334 10.5 -50.001c0 -14.667 -2 -27.5 -6 -38.5s-9.5 -21.167 -16.5 -30.5s-15.167 -18.333 -24.5 -27s-19.333 -17.334 -30 -26.001l-81 -68h168
v-66h-274zM189.001 -20.998l-54 41l515 704l55 -39zM171.001 345.002v281l-92 -63v79l97 67h66v-364h-71z" />
    <glyph glyph-name="threequarters" unicode="&#xbe;" horiz-adv-x="902" 
d="M778 75v-75h-69v75h-178v69l143 225h81l-148 -235h102v78h69v-78h59v-59h-59zM236 -21l-54 41l515 704l55 -39zM349 447c0 -15.333 -2.33203 -28.501 -6.99902 -39.501s-10.667 -20.833 -18 -29.5c-14 -15.333 -31.167 -26.166 -51.5 -32.499s-42.166 -9.5 -65.499 -9.5
c-22 0 -42.833 3.66699 -62.5 11s-36.167 18.666 -49.5 33.999c-8.66699 10 -15.834 21.667 -21.501 35s-8.5 28.333 -8.5 45h69c0.666992 -22 7.66699 -38.833 21 -50.5s30.666 -17.5 51.999 -17.5c19.333 0 36 4 50 12s21 21.667 21 41
c0 16.667 -5.16699 30.167 -15.5 40.5s-27.166 15.5 -50.499 15.5h-28v57h22c5.33301 0 10.333 0.166992 15 0.5s10.334 1.5 17.001 3.5c21.333 6 32 22.333 32 49c0 14.667 -6.16699 26.5 -18.5 35.5s-27.166 13.5 -44.499 13.5c-8 0 -16 -1.16699 -24 -3.5
s-15.333 -6 -22 -11s-12.334 -11.5 -17.001 -19.5s-7 -17.667 -7 -29h-69c0 18.667 3.16699 34.667 9.5 48s14.833 25 25.5 35c13.333 12 28.833 21 46.5 27s37.167 9 58.5 9c23.333 0 44.5 -3.5 63.5 -10.5s34.5 -17.833 46.5 -32.5
c7.33301 -8.66699 13.166 -18.334 17.499 -29.001s6.5 -23 6.5 -37c0 -16 -5 -32 -15 -48s-23.667 -26 -41 -30c19.333 -5.33301 34.666 -16.166 45.999 -32.499s17 -33.166 17 -50.499z" />
    <glyph glyph-name="questiondown" unicode="&#xbf;" horiz-adv-x="504" 
d="M198 397v110h106v-110h-106zM464 2c0 -28 -4.83203 -55.333 -14.499 -82s-23.834 -50.167 -42.501 -70.5s-42 -36.666 -70 -48.999s-60.333 -18.5 -97 -18.5c-28 0 -54.833 4.33301 -80.5 13s-48 21.167 -67 37.5s-34.167 36.166 -45.5 59.499s-17 50 -17 80
c0 40 9.5 74.333 28.5 103s45.5 55.667 79.5 81c16 11.333 28.667 22 38 32s16.5 20.333 21.5 31s8.16699 21.834 9.5 33.501s2 25.167 2 40.5v25h82v-28c0 -26.667 -2.16699 -49.334 -6.5 -68.001s-11 -35.5 -20 -50.5s-20.5 -29 -34.5 -42s-31 -27.167 -51 -42.5
s-35.167 -31.833 -45.5 -49.5s-15.5 -39.834 -15.5 -66.501c0 -29.333 10 -54.666 30 -75.999c11.333 -11.333 25 -20.166 41 -26.499s33 -9.5 51 -9.5c22 0 41.333 3.83301 58 11.5s30.667 18 42 31s19.833 28.167 25.5 45.5s8.5 35.666 8.5 54.999h90z" />
    <glyph glyph-name="Agrave" unicode="&#xc0;" horiz-adv-x="621" 
d="M521 0l-58 168h-308l-57 -168h-90l250 709h104l251 -709h-92zM308 620l-125 -368h251zM376 755l-185 99l45 71l171 -123z" />
    <glyph glyph-name="Aacute" unicode="&#xc1;" horiz-adv-x="621" 
d="M521 0l-58 168h-308l-57 -168h-90l250 709h104l251 -709h-92zM308 620l-125 -368h251zM222 754l-30 47l170 123l45 -71z" />
    <glyph glyph-name="Acircumflex" unicode="&#xc2;" horiz-adv-x="621" 
d="M521 0l-58 168h-308l-57 -168h-90l250 709h104l251 -709h-92zM308 620l-125 -368h251zM412 753l-108 115l-107 -115l-45 45l125 131h55l125 -131z" />
    <glyph glyph-name="Atilde" unicode="&#xc3;" horiz-adv-x="621" 
d="M521 0l-58 168h-308l-57 -168h-90l250 709h104l251 -709h-92zM308 620l-125 -368h251zM466 835c-11.333 -14 -25.1699 -26.5 -41.5029 -37.5s-36.166 -16.5 -59.499 -16.5c-15.333 0 -28.666 2.16699 -39.999 6.5s-22 9.16602 -32 14.499
c-9.33301 5.33301 -18.833 10.166 -28.5 14.499s-19.834 6.5 -30.501 6.5c-13.333 0 -24.666 -2.33301 -33.999 -7s-18.666 -11.667 -27.999 -21l-39 42c13.333 14.667 27.833 27.334 43.5 38.001s35.167 16 58.5 16c14 0 26.5 -2.33301 37.5 -7s21.5 -9.66699 31.5 -15
s20 -10.333 30 -15s20.667 -7 32 -7c13.333 0 25.333 2.83301 36 8.5s19.667 12.834 27 21.501z" />
    <glyph glyph-name="Adieresis" unicode="&#xc4;" horiz-adv-x="621" 
d="M521 0l-58 168h-308l-57 -168h-90l250 709h104l251 -709h-92zM308 620l-125 -368h251zM174 789v92h92v-92h-92zM350 789v92h92v-92h-92z" />
    <glyph glyph-name="Aring" unicode="&#xc5;" horiz-adv-x="621" 
d="M521 0l-58 168h-308l-57 -168h-90l236 669c-18 10.667 -31.833 25.167 -41.5 43.5s-14.5 37.5 -14.5 57.5c0 15.333 2.66699 30 8 44s13.333 26.5 24 37.5s23.334 19.833 38.001 26.5s31.667 10 51 10c18.667 0 35.667 -3.33301 51 -10s28.166 -15.5 38.499 -26.5
s18.333 -23.5 24 -37.5s8.5 -28.667 8.5 -44c0 -20 -4.83301 -38.833 -14.5 -56.5s-23.167 -32.167 -40.5 -43.5l237 -670h-92zM369 770c0 16.667 -5.33301 31.167 -16 43.5s-25.334 18.5 -44.001 18.5s-33.334 -6.16699 -44.001 -18.5s-16 -26.833 -16 -43.5
s5.33301 -31 16 -43s25.334 -18 44.001 -18s33.334 6 44.001 18s16 26.333 16 43zM308 620l-125 -368h251z" />
    <glyph glyph-name="AE" unicode="&#xc6;" horiz-adv-x="914" 
d="M435 0v189h-254l-83 -189h-98l320 709h543v-83h-338v-205h289v-84h-289v-253h338v-84h-428zM435 629h-60l-157 -356h217v356z" />
    <glyph glyph-name="Ccedilla" unicode="&#xc7;" horiz-adv-x="634" 
d="M594 226c-1.33301 -33.333 -8.16602 -63.667 -20.499 -91s-28.833 -51.666 -49.5 -72.999c-21.333 -21.333 -48.666 -39.333 -81.999 -54s-69.333 -22 -108 -22c-36 0 -70.667 6.33301 -104 19s-62.666 31.667 -87.999 57c-19.333 18.667 -34.833 39.167 -46.5 61.5
s-20.667 45.833 -27 70.5s-10.5 50.5 -12.5 77.5s-3 54.5 -3 82.5s1 55.5 3 82.5s6.16699 52.833 12.5 77.5s15.333 48.167 27 70.5s27.167 42.833 46.5 61.5c25.333 25.333 54.666 44.333 87.999 57s68 19 104 19c38.667 0 74.5 -6.83301 107.5 -20.5
s60.167 -31.167 81.5 -52.5c20.667 -21.333 37.167 -45.333 49.5 -72s19.166 -56.667 20.499 -90h-92c-0.666992 19.333 -4.5 37.333 -11.5 54s-16.167 31.667 -27.5 45c-14 15.333 -32 27.833 -54 37.5s-46.667 14.5 -74 14.5c-24 0 -47.167 -4.66699 -69.5 -14
s-42.166 -22.666 -59.499 -39.999c-14.667 -15.333 -26 -32.333 -34 -51s-14 -38.167 -18 -58.5s-6.33301 -40.833 -7 -61.5s-1 -40.334 -1 -59.001s0.333008 -38.334 1 -59.001s3 -41.167 7 -61.5s10 -40 18 -59s19.333 -35.833 34 -50.5
c17.333 -17.333 37.166 -30.666 59.499 -39.999s45.5 -14 69.5 -14c27.333 0 52.166 5.16699 74.499 15.5s40.5 23.166 54.5 38.499c11.333 13.333 20.5 28.833 27.5 46.5s10.833 36.167 11.5 55.5h92zM322 -224.001l-88 41l79 135h78z" />
    <glyph glyph-name="Egrave" unicode="&#xc8;" horiz-adv-x="625" 
d="M100 0v709h474v-82h-385v-216h338v-84h-338v-245h385v-82h-474zM410 760l-185 99l45 71l171 -123z" />
    <glyph glyph-name="Eacute" unicode="&#xc9;" horiz-adv-x="625" 
d="M100 0v709h474v-82h-385v-216h338v-84h-338v-245h385v-82h-474zM261 754l-30 47l170 123l45 -71z" />
    <glyph glyph-name="Ecircumflex" unicode="&#xca;" horiz-adv-x="625" 
d="M100 0v709h474v-82h-385v-216h338v-84h-338v-245h385v-82h-474zM444 758l-108 115l-107 -115l-45 45l125 131h55l125 -131z" />
    <glyph glyph-name="Edieresis" unicode="&#xcb;" horiz-adv-x="625" 
d="M100 0v709h474v-82h-385v-216h338v-84h-338v-245h385v-82h-474zM209 789v92h92v-92h-92zM385 789v92h92v-92h-92z" />
    <glyph glyph-name="Igrave" unicode="&#xcc;" horiz-adv-x="291" 
d="M100 0v709h91v-709h-91zM221 755l-185 99l45 71l171 -123z" />
    <glyph glyph-name="Iacute" unicode="&#xcd;" horiz-adv-x="291" 
d="M100 0v709h91v-709h-91zM71 754l-30 47l170 123l45 -71z" />
    <glyph glyph-name="Icircumflex" unicode="&#xce;" horiz-adv-x="291" 
d="M100 0v709h91v-709h-91zM253 753l-108 115l-107 -115l-45 45l125 131h55l125 -131z" />
    <glyph glyph-name="Idieresis" unicode="&#xcf;" horiz-adv-x="291" 
d="M100 0v709h91v-709h-91zM12 789v92h92v-92h-92zM188 789v92h92v-92h-92z" />
    <glyph glyph-name="Eth" unicode="&#xd0;" horiz-adv-x="690" 
d="M637 355c0 -25.333 -1.16699 -51.001 -3.5 -77.001s-6.66602 -51.167 -12.999 -75.5s-15.5 -47.666 -27.5 -69.999s-27.667 -42.833 -47 -61.5c-25.333 -24 -54 -41.833 -86 -53.5s-65.333 -17.5 -100 -17.5h-247v335h-73v66h73v308h247c34.667 0 68 -6 100 -18
s60.667 -30 86 -54c19.333 -18.667 35 -39 47 -61s21.167 -45.167 27.5 -69.5s10.666 -49.333 12.999 -75s3.5 -51.167 3.5 -76.5zM547 354.999c0 18.667 -0.5 38.1689 -1.5 58.502s-3.66699 40.166 -8 59.499s-10.5 38 -18.5 56s-19 34.333 -33 49
c-16.667 16.667 -36 29 -58 37s-44.667 12 -68 12h-158v-226h146v-66h-146v-253h158c23.333 0 46 4 68 12s41.333 20.333 58 37c14 14 25 30 33 48s14.167 36.833 18.5 56.5s7 39.667 8 60s1.5 40.166 1.5 59.499z" />
    <glyph glyph-name="Ntilde" unicode="&#xd1;" horiz-adv-x="734" 
d="M534 0l-348 570v-570h-86v709h100l348 -572v572h86v-709h-100zM526 827c-11.333 -14 -25.1699 -26.5 -41.5029 -37.5s-36.166 -16.5 -59.499 -16.5c-15.333 0 -28.666 2.16699 -39.999 6.5s-22 9.16602 -32 14.499c-9.33301 5.33301 -18.833 10.166 -28.5 14.499
s-19.834 6.5 -30.501 6.5c-13.333 0 -24.666 -2.33301 -33.999 -7s-18.666 -11.667 -27.999 -21l-39 42c13.333 14.667 27.833 27.334 43.5 38.001s35.167 16 58.5 16c14 0 26.5 -2.33301 37.5 -7s21.5 -9.66699 31.5 -15s20 -10.333 30 -15s20.667 -7 32 -7
c13.333 0 25.333 2.83301 36 8.5s19.667 12.834 27 21.501z" />
    <glyph glyph-name="Ograve" unicode="&#xd2;" horiz-adv-x="670" 
d="M617 354c0 -28 -1.16699 -55.5 -3.5 -82.5s-6.66602 -52.833 -12.999 -77.5s-15.5 -48.167 -27.5 -70.5s-27.667 -42.833 -47 -61.5c-25.333 -25.333 -54.5 -44.333 -87.5 -57s-67.5 -19 -103.5 -19s-70.5 6.33301 -103.5 19s-62.167 31.667 -87.5 57
c-19.333 18.667 -35 39.167 -47 61.5s-21.167 45.833 -27.5 70.5s-10.666 50.5 -12.999 77.5s-3.5 54.5 -3.5 82.5s1.16699 55.5 3.5 82.5s6.66602 52.833 12.999 77.5s15.5 48.167 27.5 70.5s27.667 42.833 47 61.5c25.333 25.333 54.5 44.333 87.5 57s67.5 19 103.5 19
s70.5 -6.33301 103.5 -19s62.167 -31.667 87.5 -57c19.333 -18.667 35 -39.167 47 -61.5s21.167 -45.833 27.5 -70.5s10.666 -50.5 12.999 -77.5s3.5 -54.5 3.5 -82.5zM525 354c0 18.667 -0.5 38.334 -1.5 59.001s-3.5 41.167 -7.5 61.5s-10 39.833 -18 58.5
s-19.333 35.667 -34 51c-17.333 17.333 -37.166 30.5 -59.499 39.5s-45.5 13.5 -69.5 13.5s-47.167 -4.5 -69.5 -13.5s-42.166 -22.167 -59.499 -39.5c-14.667 -15.333 -26 -32.333 -34 -51s-14 -38.167 -18 -58.5s-6.5 -40.833 -7.5 -61.5s-1.5 -40.334 -1.5 -59.001
s0.5 -38.334 1.5 -59.001s3.5 -41.167 7.5 -61.5s10 -40 18 -59s19.333 -35.833 34 -50.5c17.333 -17.333 37.166 -30.5 59.499 -39.5s45.5 -13.5 69.5 -13.5s47.167 4.5 69.5 13.5s42.166 22.167 59.499 39.5c14.667 14.667 26 31.5 34 50.5s14 38.667 18 59
s6.5 40.833 7.5 61.5s1.5 40.334 1.5 59.001zM410 760l-185 99l45 71l171 -123z" />
    <glyph glyph-name="Oacute" unicode="&#xd3;" horiz-adv-x="670" 
d="M617 354c0 -28 -1.16699 -55.5 -3.5 -82.5s-6.66602 -52.833 -12.999 -77.5s-15.5 -48.167 -27.5 -70.5s-27.667 -42.833 -47 -61.5c-25.333 -25.333 -54.5 -44.333 -87.5 -57s-67.5 -19 -103.5 -19s-70.5 6.33301 -103.5 19s-62.167 31.667 -87.5 57
c-19.333 18.667 -35 39.167 -47 61.5s-21.167 45.833 -27.5 70.5s-10.666 50.5 -12.999 77.5s-3.5 54.5 -3.5 82.5s1.16699 55.5 3.5 82.5s6.66602 52.833 12.999 77.5s15.5 48.167 27.5 70.5s27.667 42.833 47 61.5c25.333 25.333 54.5 44.333 87.5 57s67.5 19 103.5 19
s70.5 -6.33301 103.5 -19s62.167 -31.667 87.5 -57c19.333 -18.667 35 -39.167 47 -61.5s21.167 -45.833 27.5 -70.5s10.666 -50.5 12.999 -77.5s3.5 -54.5 3.5 -82.5zM525 354c0 18.667 -0.5 38.334 -1.5 59.001s-3.5 41.167 -7.5 61.5s-10 39.833 -18 58.5
s-19.333 35.667 -34 51c-17.333 17.333 -37.166 30.5 -59.499 39.5s-45.5 13.5 -69.5 13.5s-47.167 -4.5 -69.5 -13.5s-42.166 -22.167 -59.499 -39.5c-14.667 -15.333 -26 -32.333 -34 -51s-14 -38.167 -18 -58.5s-6.5 -40.833 -7.5 -61.5s-1.5 -40.334 -1.5 -59.001
s0.5 -38.334 1.5 -59.001s3.5 -41.167 7.5 -61.5s10 -40 18 -59s19.333 -35.833 34 -50.5c17.333 -17.333 37.166 -30.5 59.499 -39.5s45.5 -13.5 69.5 -13.5s47.167 4.5 69.5 13.5s42.166 22.167 59.499 39.5c14.667 14.667 26 31.5 34 50.5s14 38.667 18 59
s6.5 40.833 7.5 61.5s1.5 40.334 1.5 59.001zM257 759l-30 47l170 123l45 -71z" />
    <glyph glyph-name="Ocircumflex" unicode="&#xd4;" horiz-adv-x="670" 
d="M617 354c0 -28 -1.16699 -55.5 -3.5 -82.5s-6.66602 -52.833 -12.999 -77.5s-15.5 -48.167 -27.5 -70.5s-27.667 -42.833 -47 -61.5c-25.333 -25.333 -54.5 -44.333 -87.5 -57s-67.5 -19 -103.5 -19s-70.5 6.33301 -103.5 19s-62.167 31.667 -87.5 57
c-19.333 18.667 -35 39.167 -47 61.5s-21.167 45.833 -27.5 70.5s-10.666 50.5 -12.999 77.5s-3.5 54.5 -3.5 82.5s1.16699 55.5 3.5 82.5s6.66602 52.833 12.999 77.5s15.5 48.167 27.5 70.5s27.667 42.833 47 61.5c25.333 25.333 54.5 44.333 87.5 57s67.5 19 103.5 19
s70.5 -6.33301 103.5 -19s62.167 -31.667 87.5 -57c19.333 -18.667 35 -39.167 47 -61.5s21.167 -45.833 27.5 -70.5s10.666 -50.5 12.999 -77.5s3.5 -54.5 3.5 -82.5zM525 354c0 18.667 -0.5 38.334 -1.5 59.001s-3.5 41.167 -7.5 61.5s-10 39.833 -18 58.5
s-19.333 35.667 -34 51c-17.333 17.333 -37.166 30.5 -59.499 39.5s-45.5 13.5 -69.5 13.5s-47.167 -4.5 -69.5 -13.5s-42.166 -22.167 -59.499 -39.5c-14.667 -15.333 -26 -32.333 -34 -51s-14 -38.167 -18 -58.5s-6.5 -40.833 -7.5 -61.5s-1.5 -40.334 -1.5 -59.001
s0.5 -38.334 1.5 -59.001s3.5 -41.167 7.5 -61.5s10 -40 18 -59s19.333 -35.833 34 -50.5c17.333 -17.333 37.166 -30.5 59.499 -39.5s45.5 -13.5 69.5 -13.5s47.167 4.5 69.5 13.5s42.166 22.167 59.499 39.5c14.667 14.667 26 31.5 34 50.5s14 38.667 18 59
s6.5 40.833 7.5 61.5s1.5 40.334 1.5 59.001zM447 753l-108 115l-107 -115l-45 45l125 131h55l125 -131z" />
    <glyph glyph-name="Otilde" unicode="&#xd5;" horiz-adv-x="670" 
d="M617 354c0 -28 -1.16699 -55.5 -3.5 -82.5s-6.66602 -52.833 -12.999 -77.5s-15.5 -48.167 -27.5 -70.5s-27.667 -42.833 -47 -61.5c-25.333 -25.333 -54.5 -44.333 -87.5 -57s-67.5 -19 -103.5 -19s-70.5 6.33301 -103.5 19s-62.167 31.667 -87.5 57
c-19.333 18.667 -35 39.167 -47 61.5s-21.167 45.833 -27.5 70.5s-10.666 50.5 -12.999 77.5s-3.5 54.5 -3.5 82.5s1.16699 55.5 3.5 82.5s6.66602 52.833 12.999 77.5s15.5 48.167 27.5 70.5s27.667 42.833 47 61.5c25.333 25.333 54.5 44.333 87.5 57s67.5 19 103.5 19
s70.5 -6.33301 103.5 -19s62.167 -31.667 87.5 -57c19.333 -18.667 35 -39.167 47 -61.5s21.167 -45.833 27.5 -70.5s10.666 -50.5 12.999 -77.5s3.5 -54.5 3.5 -82.5zM525 354c0 18.667 -0.5 38.334 -1.5 59.001s-3.5 41.167 -7.5 61.5s-10 39.833 -18 58.5
s-19.333 35.667 -34 51c-17.333 17.333 -37.166 30.5 -59.499 39.5s-45.5 13.5 -69.5 13.5s-47.167 -4.5 -69.5 -13.5s-42.166 -22.167 -59.499 -39.5c-14.667 -15.333 -26 -32.333 -34 -51s-14 -38.167 -18 -58.5s-6.5 -40.833 -7.5 -61.5s-1.5 -40.334 -1.5 -59.001
s0.5 -38.334 1.5 -59.001s3.5 -41.167 7.5 -61.5s10 -40 18 -59s19.333 -35.833 34 -50.5c17.333 -17.333 37.166 -30.5 59.499 -39.5s45.5 -13.5 69.5 -13.5s47.167 4.5 69.5 13.5s42.166 22.167 59.499 39.5c14.667 14.667 26 31.5 34 50.5s14 38.667 18 59
s6.5 40.833 7.5 61.5s1.5 40.334 1.5 59.001zM502 834c-11.333 -14 -25.1699 -26.5 -41.5029 -37.5s-36.166 -16.5 -59.499 -16.5c-15.333 0 -28.666 2.16699 -39.999 6.5s-22 9.16602 -32 14.499c-9.33301 5.33301 -18.833 10.166 -28.5 14.499s-19.834 6.5 -30.501 6.5
c-13.333 0 -24.666 -2.33301 -33.999 -7s-18.666 -11.667 -27.999 -21l-39 42c13.333 14.667 27.833 27.334 43.5 38.001s35.167 16 58.5 16c14 0 26.5 -2.33301 37.5 -7s21.5 -9.66699 31.5 -15s20 -10.333 30 -15s20.667 -7 32 -7c13.333 0 25.333 2.83301 36 8.5
s19.667 12.834 27 21.501z" />
    <glyph glyph-name="Odieresis" unicode="&#xd6;" horiz-adv-x="670" 
d="M617 354c0 -28 -1.16699 -55.5 -3.5 -82.5s-6.66602 -52.833 -12.999 -77.5s-15.5 -48.167 -27.5 -70.5s-27.667 -42.833 -47 -61.5c-25.333 -25.333 -54.5 -44.333 -87.5 -57s-67.5 -19 -103.5 -19s-70.5 6.33301 -103.5 19s-62.167 31.667 -87.5 57
c-19.333 18.667 -35 39.167 -47 61.5s-21.167 45.833 -27.5 70.5s-10.666 50.5 -12.999 77.5s-3.5 54.5 -3.5 82.5s1.16699 55.5 3.5 82.5s6.66602 52.833 12.999 77.5s15.5 48.167 27.5 70.5s27.667 42.833 47 61.5c25.333 25.333 54.5 44.333 87.5 57s67.5 19 103.5 19
s70.5 -6.33301 103.5 -19s62.167 -31.667 87.5 -57c19.333 -18.667 35 -39.167 47 -61.5s21.167 -45.833 27.5 -70.5s10.666 -50.5 12.999 -77.5s3.5 -54.5 3.5 -82.5zM525 354c0 18.667 -0.5 38.334 -1.5 59.001s-3.5 41.167 -7.5 61.5s-10 39.833 -18 58.5
s-19.333 35.667 -34 51c-17.333 17.333 -37.166 30.5 -59.499 39.5s-45.5 13.5 -69.5 13.5s-47.167 -4.5 -69.5 -13.5s-42.166 -22.167 -59.499 -39.5c-14.667 -15.333 -26 -32.333 -34 -51s-14 -38.167 -18 -58.5s-6.5 -40.833 -7.5 -61.5s-1.5 -40.334 -1.5 -59.001
s0.5 -38.334 1.5 -59.001s3.5 -41.167 7.5 -61.5s10 -40 18 -59s19.333 -35.833 34 -50.5c17.333 -17.333 37.166 -30.5 59.499 -39.5s45.5 -13.5 69.5 -13.5s47.167 4.5 69.5 13.5s42.166 22.167 59.499 39.5c14.667 14.667 26 31.5 34 50.5s14 38.667 18 59
s6.5 40.833 7.5 61.5s1.5 40.334 1.5 59.001zM204 791v92h92v-92h-92zM380 791v92h92v-92h-92z" />
    <glyph glyph-name="multiply" unicode="&#xd7;" horiz-adv-x="682" 
d="M563 22l-222 222l-222 -222l-54 54l222 222l-222 222l54 54l221 -222l223 222l54 -54l-223 -222l223 -222z" />
    <glyph glyph-name="Oslash" unicode="&#xd8;" horiz-adv-x="670" 
d="M617 354c0 -28 -1.16699 -55.5 -3.5 -82.5s-6.66602 -52.833 -12.999 -77.5s-15.5 -48.167 -27.5 -70.5s-27.667 -42.833 -47 -61.5c-25.333 -25.333 -54.5 -44.333 -87.5 -57s-67.5 -19 -103.5 -19c-46 0 -88.333 10 -127 30l-39 -85l-56 26l43 94
c-2 2 -4 3.83301 -6 5.5s-4 3.5 -6 5.5c-19.333 18.667 -35 39.167 -47 61.5s-21.167 45.833 -27.5 70.5s-10.666 50.5 -12.999 77.5s-3.5 54.5 -3.5 82.5s1.16699 55.5 3.5 82.5s6.66602 52.833 12.999 77.5s15.5 48.167 27.5 70.5s27.667 42.833 47 61.5
c25.333 25.333 54.5 44.333 87.5 57s67.5 19 103.5 19c20 0 39.833 -2 59.5 -6s38.5 -10.333 56.5 -19l32 71l55 -25l-35 -77c8 -6 15.667 -12.667 23 -20c19.333 -18.667 35 -39.167 47 -61.5s21.167 -45.833 27.5 -70.5s10.666 -50.5 12.999 -77.5s3.5 -54.5 3.5 -82.5z
M525 354c0 18 -0.499023 37.332 -1.49902 57.999s-3.5 41.167 -7.5 61.5s-10 39.833 -18 58.5s-19 35.667 -33 51l-221 -488c13.333 -8 27.833 -14 43.5 -18s31.5 -6 47.5 -6c24 0 47.167 4.5 69.5 13.5s42.166 22.167 59.499 39.5c14.667 14.667 26 31.5 34 50.5
s14 38.667 18 59s6.5 40.833 7.5 61.5s1.5 40.334 1.5 59.001zM415.001 618.999c-25.333 12 -52.001 18.001 -80.001 18.001c-24 0 -47.167 -4.5 -69.5 -13.5s-42.166 -22.167 -59.499 -39.5c-14.667 -15.333 -26 -32.333 -34 -51s-14 -38.167 -18 -58.5
s-6.5 -40.833 -7.5 -61.5s-1.5 -40.334 -1.5 -59.001c0 -17.333 0.333008 -35.5 1 -54.5s2.66699 -38 6 -57s8.33301 -37.667 15 -56s16 -34.833 28 -49.5z" />
    <glyph glyph-name="Ugrave" unicode="&#xd9;" horiz-adv-x="678" 
d="M598 260c0 -44 -5.99805 -83 -17.998 -117s-29.333 -62.5 -52 -85.5s-49.834 -40.5 -81.501 -52.5s-67.5 -18 -107.5 -18s-75.833 6 -107.5 18s-58.834 29.5 -81.501 52.5s-40 51.5 -52 85.5s-18 73 -18 117v449h89v-451c0 -28 3.16699 -53.667 9.5 -77
s16.166 -43.166 29.499 -59.499s30.833 -29 52.5 -38s47.834 -13.5 78.501 -13.5s56.834 4.5 78.501 13.5s39.167 21.667 52.5 38s23.166 36.166 29.499 59.499s9.5 49 9.5 77v451h89v-449zM402.002 755l-185 99l45 71l171 -123z" />
    <glyph glyph-name="Uacute" unicode="&#xda;" horiz-adv-x="678" 
d="M598 260c0 -44 -5.99805 -83 -17.998 -117s-29.333 -62.5 -52 -85.5s-49.834 -40.5 -81.501 -52.5s-67.5 -18 -107.5 -18s-75.833 6 -107.5 18s-58.834 29.5 -81.501 52.5s-40 51.5 -52 85.5s-18 73 -18 117v449h89v-451c0 -28 3.16699 -53.667 9.5 -77
s16.166 -43.166 29.499 -59.499s30.833 -29 52.5 -38s47.834 -13.5 78.501 -13.5s56.834 4.5 78.501 13.5s39.167 21.667 52.5 38s23.166 36.166 29.499 59.499s9.5 49 9.5 77v451h89v-449zM269.002 754l-30 47l170 123l45 -71z" />
    <glyph glyph-name="Ucircumflex" unicode="&#xdb;" horiz-adv-x="678" 
d="M598 260c0 -44 -5.99805 -83 -17.998 -117s-29.333 -62.5 -52 -85.5s-49.834 -40.5 -81.501 -52.5s-67.5 -18 -107.5 -18s-75.833 6 -107.5 18s-58.834 29.5 -81.501 52.5s-40 51.5 -52 85.5s-18 73 -18 117v449h89v-451c0 -28 3.16699 -53.667 9.5 -77
s16.166 -43.166 29.499 -59.499s30.833 -29 52.5 -38s47.834 -13.5 78.501 -13.5s56.834 4.5 78.501 13.5s39.167 21.667 52.5 38s23.166 36.166 29.499 59.499s9.5 49 9.5 77v451h89v-449zM457.002 753l-108 115l-107 -115l-45 45l125 131h55l125 -131z" />
    <glyph glyph-name="Udieresis" unicode="&#xdc;" horiz-adv-x="678" 
d="M598 260c0 -44 -5.99805 -83 -17.998 -117s-29.333 -62.5 -52 -85.5s-49.834 -40.5 -81.501 -52.5s-67.5 -18 -107.5 -18s-75.833 6 -107.5 18s-58.834 29.5 -81.501 52.5s-40 51.5 -52 85.5s-18 73 -18 117v449h89v-451c0 -28 3.16699 -53.667 9.5 -77
s16.166 -43.166 29.499 -59.499s30.833 -29 52.5 -38s47.834 -13.5 78.501 -13.5s56.834 4.5 78.501 13.5s39.167 21.667 52.5 38s23.166 36.166 29.499 59.499s9.5 49 9.5 77v451h89v-449zM216.002 790v92h92v-92h-92zM392.002 790v92h92v-92h-92z" />
    <glyph glyph-name="Yacute" unicode="&#xdd;" horiz-adv-x="566" 
d="M328 288v-288h-90v288l-238 421h100l186 -337l185 337h95zM212 749l-30 47l170 123l45 -71z" />
    <glyph glyph-name="Thorn" unicode="&#xde;" horiz-adv-x="607" 
d="M577 363c0 -68 -19.668 -121.667 -59.001 -161c-19.333 -19.333 -43.166 -34 -71.499 -44s-62.166 -15 -101.499 -15h-155v-143h-90v710h90v-133h154c42 0 77.5 -5.5 106.5 -16.5s53.167 -26.833 72.5 -47.5c17.333 -18.667 30.666 -40.5 39.999 -65.5
s14 -53.167 14 -84.5zM484.999 363c0 42 -11.333 74.667 -34 98s-59 35 -109 35h-152v-272h153c52 0 88.667 11.667 110 35s32 58 32 104z" />
    <glyph glyph-name="germandbls" unicode="&#xdf;" horiz-adv-x="608" 
d="M563 208c0 -34 -5.50391 -64.1709 -16.5039 -90.5039s-26.5 -48.666 -46.5 -66.999s-43.5 -32.333 -70.5 -42s-56.5 -14.5 -88.5 -14.5c-14 0 -28.167 0.5 -42.5 1.5s-28.166 3.16699 -41.499 6.5v71c11.333 -2 22.5 -3.33301 33.5 -4s22.167 -1 33.5 -1
c21.333 0 41.166 2.66699 59.499 8s34.333 13.833 48 25.5s24.334 26.334 32.001 44.001s11.5 38.5 11.5 62.5c0 26.667 -4.16699 49.334 -12.5 68.001s-19.666 33.834 -33.999 45.501s-31.333 20 -51 25s-40.5 7.5 -62.5 7.5h-28v74h28c15.333 0 29.833 3 43.5 9
s25.667 14.5 36 25.5s18.5 23.667 24.5 38s9 30.166 9 47.499c0 33.333 -9.5 60.333 -28.5 81s-47.167 31 -84.5 31c-22 0 -40.5 -4 -55.5 -12s-27.167 -19 -36.5 -33s-16.166 -30.667 -20.499 -50s-6.5 -40 -6.5 -62v-503h-86v430h-85v76h86
c0 71.333 17.833 126.833 53.5 166.5s85.834 59.5 150.501 59.5c30.667 0 58.334 -4.5 83.001 -13.5s45.667 -21.5 63 -37.5s30.666 -35.333 39.999 -58s14 -47.667 14 -75c0 -36.667 -10 -69.167 -30 -97.5s-46.333 -46.833 -79 -55.5c24 -3.33301 45.667 -10.5 65 -21.5
s35.833 -24.833 49.5 -41.5s24.167 -35.667 31.5 -57s11 -43.666 11 -66.999z" />
    <glyph glyph-name="agrave" unicode="&#xe0;" horiz-adv-x="559" 
d="M517 5c-9.33301 -4.66699 -18.333 -7.83301 -27 -9.5s-18.334 -2.5 -29.001 -2.5c-22.667 0 -40.5 7.5 -53.5 22.5s-19.5 33.167 -19.5 54.5h-2c-14.667 -25.333 -36.5 -45.5 -65.5 -60.5s-61.5 -22.5 -97.5 -22.5c-29.333 0 -54.833 4.5 -76.5 13.5
s-39.667 20.833 -54 35.5s-25.166 31.334 -32.499 50.001s-11 37.667 -11 57c0 16 2.83301 33 8.5 51s15.5 34.5 29.5 49.5s32.5 27.833 55.5 38.5s51.833 17 86.5 19l154 9v37c0 12.667 -1.5 26 -4.5 40s-10.167 26.333 -21.5 37c-8.66699 8 -19.5 14.333 -32.5 19
s-29.833 7 -50.5 7c-23.333 0 -42.333 -2.83301 -57 -8.5s-26.334 -12.834 -35.001 -21.501c-16.667 -16.667 -25 -37 -25 -61h-83c0.666992 23.333 4.83398 43.5 12.501 60.5s18.167 32.167 31.5 45.5c17.333 18 39.833 31.5 67.5 40.5s57.167 13.5 88.5 13.5
c49.333 0 88.333 -9.16699 117 -27.5s49 -41.5 61 -69.5c10 -23.333 15 -49.333 15 -78v-245c0 -13.333 2.5 -22.333 7.5 -27s11.833 -7 20.5 -7h7c2.66699 0 5 0.333008 7 1l8 2v-63zM383 244.001l-135.997 -7.99805c-12.667 -0.666992 -25.667 -2.83398 -39 -6.50098
s-25.333 -9 -36 -16s-19.334 -16.167 -26.001 -27.5s-10 -25 -10 -41c0 -22.667 7.66699 -42.834 23 -60.501s41 -26.5 77 -26.5c19.333 0 38.166 3.33301 56.499 10s34.166 17 47.499 31c15.333 15.333 26.333 33 33 53s10 40.667 10 62v30zM170.003 653.003l45 71
l170 -123l-30 -47z" />
    <glyph glyph-name="aacute" unicode="&#xe1;" horiz-adv-x="559" 
d="M517 5c-9.33301 -4.66699 -18.333 -7.83301 -27 -9.5s-18.334 -2.5 -29.001 -2.5c-22.667 0 -40.5 7.5 -53.5 22.5s-19.5 33.167 -19.5 54.5h-2c-14.667 -25.333 -36.5 -45.5 -65.5 -60.5s-61.5 -22.5 -97.5 -22.5c-29.333 0 -54.833 4.5 -76.5 13.5
s-39.667 20.833 -54 35.5s-25.166 31.334 -32.499 50.001s-11 37.667 -11 57c0 16 2.83301 33 8.5 51s15.5 34.5 29.5 49.5s32.5 27.833 55.5 38.5s51.833 17 86.5 19l154 9v37c0 12.667 -1.5 26 -4.5 40s-10.167 26.333 -21.5 37c-8.66699 8 -19.5 14.333 -32.5 19
s-29.833 7 -50.5 7c-23.333 0 -42.333 -2.83301 -57 -8.5s-26.334 -12.834 -35.001 -21.501c-16.667 -16.667 -25 -37 -25 -61h-83c0.666992 23.333 4.83398 43.5 12.501 60.5s18.167 32.167 31.5 45.5c17.333 18 39.833 31.5 67.5 40.5s57.167 13.5 88.5 13.5
c49.333 0 88.333 -9.16699 117 -27.5s49 -41.5 61 -69.5c10 -23.333 15 -49.333 15 -78v-245c0 -13.333 2.5 -22.333 7.5 -27s11.833 -7 20.5 -7h7c2.66699 0 5 0.333008 7 1l8 2v-63zM383 244.001l-135.997 -7.99805c-12.667 -0.666992 -25.667 -2.83398 -39 -6.50098
s-25.333 -9 -36 -16s-19.334 -16.167 -26.001 -27.5s-10 -25 -10 -41c0 -22.667 7.66699 -42.834 23 -60.501s41 -26.5 77 -26.5c19.333 0 38.166 3.33301 56.499 10s34.166 17 47.499 31c15.333 15.333 26.333 33 33 53s10 40.667 10 62v30zM194.003 555.003l-30 47
l170 123l45 -71z" />
    <glyph glyph-name="acircumflex" unicode="&#xe2;" horiz-adv-x="559" 
d="M517 5c-9.33301 -4.66699 -18.333 -7.83301 -27 -9.5s-18.334 -2.5 -29.001 -2.5c-22.667 0 -40.5 7.5 -53.5 22.5s-19.5 33.167 -19.5 54.5h-2c-14.667 -25.333 -36.5 -45.5 -65.5 -60.5s-61.5 -22.5 -97.5 -22.5c-29.333 0 -54.833 4.5 -76.5 13.5
s-39.667 20.833 -54 35.5s-25.166 31.334 -32.499 50.001s-11 37.667 -11 57c0 16 2.83301 33 8.5 51s15.5 34.5 29.5 49.5s32.5 27.833 55.5 38.5s51.833 17 86.5 19l154 9v37c0 12.667 -1.5 26 -4.5 40s-10.167 26.333 -21.5 37c-8.66699 8 -19.5 14.333 -32.5 19
s-29.833 7 -50.5 7c-23.333 0 -42.333 -2.83301 -57 -8.5s-26.334 -12.834 -35.001 -21.501c-16.667 -16.667 -25 -37 -25 -61h-83c0.666992 23.333 4.83398 43.5 12.501 60.5s18.167 32.167 31.5 45.5c17.333 18 39.833 31.5 67.5 40.5s57.167 13.5 88.5 13.5
c49.333 0 88.333 -9.16699 117 -27.5s49 -41.5 61 -69.5c10 -23.333 15 -49.333 15 -78v-245c0 -13.333 2.5 -22.333 7.5 -27s11.833 -7 20.5 -7h7c2.66699 0 5 0.333008 7 1l8 2v-63zM383 244.001l-135.997 -7.99805c-12.667 -0.666992 -25.667 -2.83398 -39 -6.50098
s-25.333 -9 -36 -16s-19.334 -16.167 -26.001 -27.5s-10 -25 -10 -41c0 -22.667 7.66699 -42.834 23 -60.501s41 -26.5 77 -26.5c19.333 0 38.166 3.33301 56.499 10s34.166 17 47.499 31c15.333 15.333 26.333 33 33 53s10 40.667 10 62v30zM381.003 557.003l-108 115
l-107 -115l-45 45l125 131h55l125 -131z" />
    <glyph glyph-name="atilde" unicode="&#xe3;" horiz-adv-x="559" 
d="M517 5c-9.33301 -4.66699 -18.333 -7.83301 -27 -9.5s-18.334 -2.5 -29.001 -2.5c-22.667 0 -40.5 7.5 -53.5 22.5s-19.5 33.167 -19.5 54.5h-2c-14.667 -25.333 -36.5 -45.5 -65.5 -60.5s-61.5 -22.5 -97.5 -22.5c-29.333 0 -54.833 4.5 -76.5 13.5
s-39.667 20.833 -54 35.5s-25.166 31.334 -32.499 50.001s-11 37.667 -11 57c0 16 2.83301 33 8.5 51s15.5 34.5 29.5 49.5s32.5 27.833 55.5 38.5s51.833 17 86.5 19l154 9v37c0 12.667 -1.5 26 -4.5 40s-10.167 26.333 -21.5 37c-8.66699 8 -19.5 14.333 -32.5 19
s-29.833 7 -50.5 7c-23.333 0 -42.333 -2.83301 -57 -8.5s-26.334 -12.834 -35.001 -21.501c-16.667 -16.667 -25 -37 -25 -61h-83c0.666992 23.333 4.83398 43.5 12.501 60.5s18.167 32.167 31.5 45.5c17.333 18 39.833 31.5 67.5 40.5s57.167 13.5 88.5 13.5
c49.333 0 88.333 -9.16699 117 -27.5s49 -41.5 61 -69.5c10 -23.333 15 -49.333 15 -78v-245c0 -13.333 2.5 -22.333 7.5 -27s11.833 -7 20.5 -7h7c2.66699 0 5 0.333008 7 1l8 2v-63zM383 244.001l-135.997 -7.99805c-12.667 -0.666992 -25.667 -2.83398 -39 -6.50098
s-25.333 -9 -36 -16s-19.334 -16.167 -26.001 -27.5s-10 -25 -10 -41c0 -22.667 7.66699 -42.834 23 -60.501s41 -26.5 77 -26.5c19.333 0 38.166 3.33301 56.499 10s34.166 17 47.499 31c15.333 15.333 26.333 33 33 53s10 40.667 10 62v30zM443.003 647.003
c-11.333 -14 -25.1699 -26.5 -41.5029 -37.5s-36.166 -16.5 -59.499 -16.5c-15.333 0 -28.666 2.16699 -39.999 6.5s-22 9.16602 -32 14.499c-9.33301 5.33301 -18.833 10.166 -28.5 14.499s-19.834 6.5 -30.501 6.5c-13.333 0 -24.666 -2.33301 -33.999 -7
s-18.666 -11.667 -27.999 -21l-39 42c13.333 14.667 27.833 27.334 43.5 38.001s35.167 16 58.5 16c14 0 26.5 -2.33301 37.5 -7s21.5 -9.66699 31.5 -15s20 -10.333 30 -15s20.667 -7 32 -7c13.333 0 25.333 2.83301 36 8.5s19.667 12.834 27 21.501z" />
    <glyph glyph-name="adieresis" unicode="&#xe4;" horiz-adv-x="559" 
d="M517 5c-9.33301 -4.66699 -18.333 -7.83301 -27 -9.5s-18.334 -2.5 -29.001 -2.5c-22.667 0 -40.5 7.5 -53.5 22.5s-19.5 33.167 -19.5 54.5h-2c-14.667 -25.333 -36.5 -45.5 -65.5 -60.5s-61.5 -22.5 -97.5 -22.5c-29.333 0 -54.833 4.5 -76.5 13.5
s-39.667 20.833 -54 35.5s-25.166 31.334 -32.499 50.001s-11 37.667 -11 57c0 16 2.83301 33 8.5 51s15.5 34.5 29.5 49.5s32.5 27.833 55.5 38.5s51.833 17 86.5 19l154 9v37c0 12.667 -1.5 26 -4.5 40s-10.167 26.333 -21.5 37c-8.66699 8 -19.5 14.333 -32.5 19
s-29.833 7 -50.5 7c-23.333 0 -42.333 -2.83301 -57 -8.5s-26.334 -12.834 -35.001 -21.501c-16.667 -16.667 -25 -37 -25 -61h-83c0.666992 23.333 4.83398 43.5 12.501 60.5s18.167 32.167 31.5 45.5c17.333 18 39.833 31.5 67.5 40.5s57.167 13.5 88.5 13.5
c49.333 0 88.333 -9.16699 117 -27.5s49 -41.5 61 -69.5c10 -23.333 15 -49.333 15 -78v-245c0 -13.333 2.5 -22.333 7.5 -27s11.833 -7 20.5 -7h7c2.66699 0 5 0.333008 7 1l8 2v-63zM383 244.001l-135.997 -7.99805c-12.667 -0.666992 -25.667 -2.83398 -39 -6.50098
s-25.333 -9 -36 -16s-19.334 -16.167 -26.001 -27.5s-10 -25 -10 -41c0 -22.667 7.66699 -42.834 23 -60.501s41 -26.5 77 -26.5c19.333 0 38.166 3.33301 56.499 10s34.166 17 47.499 31c15.333 15.333 26.333 33 33 53s10 40.667 10 62v30zM145.003 602.003v92h92v-92h-92
zM321.003 602.003v92h92v-92h-92z" />
    <glyph glyph-name="aring" unicode="&#xe5;" horiz-adv-x="559" 
d="M517 5c-9.33301 -4.66699 -18.333 -7.83301 -27 -9.5s-18.334 -2.5 -29.001 -2.5c-22.667 0 -40.5 7.5 -53.5 22.5s-19.5 33.167 -19.5 54.5h-2c-14.667 -25.333 -36.5 -45.5 -65.5 -60.5s-61.5 -22.5 -97.5 -22.5c-29.333 0 -54.833 4.5 -76.5 13.5
s-39.667 20.833 -54 35.5s-25.166 31.334 -32.499 50.001s-11 37.667 -11 57c0 16 2.83301 33 8.5 51s15.5 34.5 29.5 49.5s32.5 27.833 55.5 38.5s51.833 17 86.5 19l154 9v37c0 12.667 -1.5 26 -4.5 40s-10.167 26.333 -21.5 37c-8.66699 8 -19.5 14.333 -32.5 19
s-29.833 7 -50.5 7c-23.333 0 -42.333 -2.83301 -57 -8.5s-26.334 -12.834 -35.001 -21.501c-16.667 -16.667 -25 -37 -25 -61h-83c0.666992 23.333 4.83398 43.5 12.501 60.5s18.167 32.167 31.5 45.5c17.333 18 39.833 31.5 67.5 40.5s57.167 13.5 88.5 13.5
c49.333 0 88.333 -9.16699 117 -27.5s49 -41.5 61 -69.5c10 -23.333 15 -49.333 15 -78v-245c0 -13.333 2.5 -22.333 7.5 -27s11.833 -7 20.5 -7h7c2.66699 0 5 0.333008 7 1l8 2v-63zM383 244.001l-135.997 -7.99805c-12.667 -0.666992 -25.667 -2.83398 -39 -6.50098
s-25.333 -9 -36 -16s-19.334 -16.167 -26.001 -27.5s-10 -25 -10 -41c0 -22.667 7.66699 -42.834 23 -60.501s41 -26.5 77 -26.5c19.333 0 38.166 3.33301 56.499 10s34.166 17 47.499 31c15.333 15.333 26.333 33 33 53s10 40.667 10 62v30zM390.003 671.003
c0 -14 -2.5 -27.333 -7.5 -40s-12.167 -24 -21.5 -34s-20.833 -18 -34.5 -24s-29.167 -9 -46.5 -9s-32.833 3 -46.5 9s-25.167 14 -34.5 24s-16.5 21.333 -21.5 34s-7.5 26 -7.5 40s2.5 27.333 7.5 40s12.167 24 21.5 34s20.833 18 34.5 24s29.167 9 46.5 9
s32.833 -3 46.5 -9s25.167 -14 34.5 -24s16.5 -21.333 21.5 -34s7.5 -26 7.5 -40zM334.003 671.003c0 15.333 -4.83301 28.5 -14.5 39.5s-22.834 16.5 -39.501 16.5s-30 -5.5 -40 -16.5s-15 -24.167 -15 -39.5s5 -28.333 15 -39s23.333 -16 40 -16s29.834 5.33301 39.501 16
s14.5 23.667 14.5 39z" />
    <glyph glyph-name="ae" unicode="&#xe6;" horiz-adv-x="847" 
d="M455 229l0.000976562 -4.00391c0 -21.333 2.33301 -42.166 7 -62.499s12.334 -38.333 23.001 -54s24.667 -28.334 42 -38.001s38.666 -14.5 63.999 -14.5c24.667 0 48 7.33301 70 22s36.667 38 44 70h84c-3.33301 -25.333 -10.166 -47.666 -20.499 -66.999
s-25.166 -37 -44.499 -53c-18.667 -15.333 -37.834 -26.333 -57.501 -33s-44.5 -10 -74.5 -10c-40 0 -76 8.16699 -108 24.5s-55.667 40.5 -71 72.5c-16.667 -29.333 -40 -52.666 -70 -69.999s-67.333 -26 -112 -26c-29.333 0 -55.666 4.5 -78.999 13.5
s-43.333 21.833 -60 38.5c-13.333 13.333 -23.833 28.833 -31.5 46.5s-11.5 37.834 -11.5 60.501s4.33301 43.334 13 62.001s20.5 34.5 35.5 47.5s32.333 23.167 52 30.5s40.167 11 61.5 11c27.333 0.666992 54.333 1.16699 81 1.5s53.667 0.5 81 0.5v54
c0 34 -9.83301 58.833 -29.5 74.5s-45.5 23.5 -77.5 23.5s-58.5 -7.16699 -79.5 -21.5s-32.5 -37.5 -34.5 -69.5h-83c1.33301 28.667 7.83301 53.334 19.5 74.001s26.667 37.5 45 50.5s39.166 22.5 62.499 28.5s47 9 71 9c14.667 0 29.667 -1.5 45 -4.5
s30.333 -7.5 45 -13.5s28.167 -13.833 40.5 -23.5s22.833 -20.834 31.5 -33.501c16.667 23.333 37.667 41.333 63 54s57 19 95 19c43.333 0 78.166 -7.83301 104.499 -23.5s48.5 -37.5 66.5 -65.5c15.333 -23.333 25.666 -48.833 30.999 -76.5s8 -60.167 8 -97.5v-26z
M711.001 295.996c-0.666992 23.333 -3.49902 44.5 -8.49902 63.5s-13.167 35.5 -24.5 49.5c-9.33301 12 -21.333 21.833 -36 29.5s-33.334 11.5 -56.001 11.5c-19.333 0 -36 -3.33301 -50 -10s-26.333 -15.667 -37 -27c-14 -14.667 -24.5 -32 -31.5 -52
s-10.5 -41.667 -10.5 -65h254zM231.002 232.996c-26 0 -48.5 -7.5 -67.5 -22.5s-28.5 -36.5 -28.5 -64.5s9.16699 -49.5 27.5 -64.5s40.833 -22.5 67.5 -22.5c19.333 0 38.333 2.83301 57 8.5s34.667 15.167 48 28.5c19.333 19.333 31 39 35 59s6 41.667 6 65v14z" />
    <glyph glyph-name="ccedilla" unicode="&#xe7;" horiz-adv-x="532" 
d="M486 170c-2 -27.333 -7.99902 -51.335 -17.999 -72.002s-23.667 -39.334 -41 -56.001c-18 -17.333 -39 -30.833 -63 -40.5s-51.667 -14.5 -83 -14.5c-46 0 -83.833 9.16699 -113.5 27.5s-53.5 40.833 -71.5 67.5c-13.333 20 -23.666 44 -30.999 72s-11 61 -11 99
s3.66699 71 11 99s17.666 52 30.999 72c18 26.667 41.833 49.167 71.5 67.5s67.167 27.5 112.5 27.5c30 0 57.167 -4.66699 81.5 -14s45.166 -22.666 62.499 -39.999c17.333 -16.667 31.166 -35.5 41.499 -56.5s16.5 -45.5 18.5 -73.5h-86
c-2 17.333 -6.16699 32.5 -12.5 45.5s-14.166 24.167 -23.499 33.5c-10 9.33301 -22 16.833 -36 22.5s-29.333 8.5 -46 8.5c-19.333 0 -36 -3.16699 -50 -9.5s-26.667 -14.166 -38 -23.499c-20 -17.333 -33.5 -40.333 -40.5 -69s-10.5 -58.667 -10.5 -90
s3.5 -61.333 10.5 -90s20.5 -51.667 40.5 -69c11.333 -9.33301 24 -17.166 38 -23.499s30.667 -9.5 50 -9.5c17.333 0 33.5 3 48.5 9s27.5 14.333 37.5 25c9.33301 9.33301 16.833 20 22.5 32s9.5 26.333 11.5 43h86zM271.001 -233.002l-86 40l77 131h75z" />
    <glyph glyph-name="egrave" unicode="&#xe8;" horiz-adv-x="551" 
d="M501 280l-0.00292969 -27.5c0 -9 -0.333008 -18.167 -1 -27.5h-358c0 -23.333 4.33301 -46.5 13 -69.5s20.667 -42.167 36 -57.5c24 -24 55 -36 93 -36c41.333 0 72.666 11 93.999 33c7.33301 7.33301 13.333 15 18 23s8.66699 18.667 12 32h83
c-3.33301 -25.333 -12 -49 -26 -71s-31.333 -40 -52 -54c-18 -12 -38 -21.333 -60 -28s-45 -10 -69 -10c-36 0 -68.167 6.83301 -96.5 20.5s-52.166 32.167 -71.499 55.5c-21.333 24.667 -37.166 53.167 -47.499 85.5s-15.5 66.5 -15.5 102.5c0 30.667 3 59.5 9 86.5
s16 52.167 30 75.5c18 30.667 43.333 56 76 76s71 30 115 30c32.667 0 61.834 -5.83301 87.501 -17.5s47.834 -27.5 66.501 -47.5c20 -22 35.667 -48 47 -78s17 -62 17 -96zM413.997 298c0 19.333 -2.66309 38.001 -7.99609 56.001s-13 33.667 -23 47
c-10.667 14 -24.334 25.167 -41.001 33.5s-36.334 12.5 -59.001 12.5c-23.333 0 -43.5 -4.33301 -60.5 -13s-31.333 -20 -43 -34s-20.334 -29.833 -26.001 -47.5s-8.83398 -35.834 -9.50098 -54.501h270zM178.001 655.001l45 71l170 -123l-30 -47z" />
    <glyph glyph-name="eacute" unicode="&#xe9;" horiz-adv-x="551" 
d="M501 280l-0.00292969 -27.5c0 -9 -0.333008 -18.167 -1 -27.5h-358c0 -23.333 4.33301 -46.5 13 -69.5s20.667 -42.167 36 -57.5c24 -24 55 -36 93 -36c41.333 0 72.666 11 93.999 33c7.33301 7.33301 13.333 15 18 23s8.66699 18.667 12 32h83
c-3.33301 -25.333 -12 -49 -26 -71s-31.333 -40 -52 -54c-18 -12 -38 -21.333 -60 -28s-45 -10 -69 -10c-36 0 -68.167 6.83301 -96.5 20.5s-52.166 32.167 -71.499 55.5c-21.333 24.667 -37.166 53.167 -47.499 85.5s-15.5 66.5 -15.5 102.5c0 30.667 3 59.5 9 86.5
s16 52.167 30 75.5c18 30.667 43.333 56 76 76s71 30 115 30c32.667 0 61.834 -5.83301 87.501 -17.5s47.834 -27.5 66.501 -47.5c20 -22 35.667 -48 47 -78s17 -62 17 -96zM413.997 298c0 19.333 -2.66309 38.001 -7.99609 56.001s-13 33.667 -23 47
c-10.667 14 -24.334 25.167 -41.001 33.5s-36.334 12.5 -59.001 12.5c-23.333 0 -43.5 -4.33301 -60.5 -13s-31.333 -20 -43 -34s-20.334 -29.833 -26.001 -47.5s-8.83398 -35.834 -9.50098 -54.501h270zM209.001 553.001l-30 47l170 123l45 -71z" />
    <glyph glyph-name="ecircumflex" unicode="&#xea;" horiz-adv-x="551" 
d="M501 280l-0.00292969 -27.5c0 -9 -0.333008 -18.167 -1 -27.5h-358c0 -23.333 4.33301 -46.5 13 -69.5s20.667 -42.167 36 -57.5c24 -24 55 -36 93 -36c41.333 0 72.666 11 93.999 33c7.33301 7.33301 13.333 15 18 23s8.66699 18.667 12 32h83
c-3.33301 -25.333 -12 -49 -26 -71s-31.333 -40 -52 -54c-18 -12 -38 -21.333 -60 -28s-45 -10 -69 -10c-36 0 -68.167 6.83301 -96.5 20.5s-52.166 32.167 -71.499 55.5c-21.333 24.667 -37.166 53.167 -47.499 85.5s-15.5 66.5 -15.5 102.5c0 30.667 3 59.5 9 86.5
s16 52.167 30 75.5c18 30.667 43.333 56 76 76s71 30 115 30c32.667 0 61.834 -5.83301 87.501 -17.5s47.834 -27.5 66.501 -47.5c20 -22 35.667 -48 47 -78s17 -62 17 -96zM413.997 298c0 19.333 -2.66309 38.001 -7.99609 56.001s-13 33.667 -23 47
c-10.667 14 -24.334 25.167 -41.001 33.5s-36.334 12.5 -59.001 12.5c-23.333 0 -43.5 -4.33301 -60.5 -13s-31.333 -20 -43 -34s-20.334 -29.833 -26.001 -47.5s-8.83398 -35.834 -9.50098 -54.501h270zM391.001 552.001l-108 115l-107 -115l-45 45l125 131h55l125 -131z
" />
    <glyph glyph-name="edieresis" unicode="&#xeb;" horiz-adv-x="551" 
d="M501 280l-0.00292969 -27.5c0 -9 -0.333008 -18.167 -1 -27.5h-358c0 -23.333 4.33301 -46.5 13 -69.5s20.667 -42.167 36 -57.5c24 -24 55 -36 93 -36c41.333 0 72.666 11 93.999 33c7.33301 7.33301 13.333 15 18 23s8.66699 18.667 12 32h83
c-3.33301 -25.333 -12 -49 -26 -71s-31.333 -40 -52 -54c-18 -12 -38 -21.333 -60 -28s-45 -10 -69 -10c-36 0 -68.167 6.83301 -96.5 20.5s-52.166 32.167 -71.499 55.5c-21.333 24.667 -37.166 53.167 -47.499 85.5s-15.5 66.5 -15.5 102.5c0 30.667 3 59.5 9 86.5
s16 52.167 30 75.5c18 30.667 43.333 56 76 76s71 30 115 30c32.667 0 61.834 -5.83301 87.501 -17.5s47.834 -27.5 66.501 -47.5c20 -22 35.667 -48 47 -78s17 -62 17 -96zM413.997 298c0 19.333 -2.66309 38.001 -7.99609 56.001s-13 33.667 -23 47
c-10.667 14 -24.334 25.167 -41.001 33.5s-36.334 12.5 -59.001 12.5c-23.333 0 -43.5 -4.33301 -60.5 -13s-31.333 -20 -43 -34s-20.334 -29.833 -26.001 -47.5s-8.83398 -35.834 -9.50098 -54.501h270zM151.001 599.001v92h92v-92h-92zM327.001 599.001v92h92v-92h-92z
" />
    <glyph glyph-name="igrave" unicode="&#xec;" horiz-adv-x="273" 
d="M94 0v506h86v-506h-86zM8 649l45 71l170 -123l-30 -47z" />
    <glyph glyph-name="iacute" unicode="&#xed;" horiz-adv-x="273" 
d="M80 0v506h86v-506h-86zM66 551l-30 47l170 123l45 -71z" />
    <glyph glyph-name="icircumflex" unicode="&#xee;" horiz-adv-x="273" 
d="M96 0v506h86v-506h-86zM245 552l-108 115l-107 -115l-45 45l125 131h55l125 -131z" />
    <glyph glyph-name="idieresis" unicode="&#xef;" horiz-adv-x="273" 
d="M93 0v506h86v-506h-86zM3 599v92h92v-92h-92zM179 599v92h92v-92h-92z" />
    <glyph glyph-name="eth" unicode="&#xf0;" horiz-adv-x="551" 
d="M497 253c0 -40 -4.5 -77.833 -13.5 -113.5s-27.167 -66.834 -54.5 -93.501c-18.667 -18 -41 -32.333 -67 -43s-55 -16 -87 -16s-60.833 5.33301 -86.5 16s-47.834 25 -66.501 43c-27.333 26.667 -45.5 57.834 -54.5 93.501s-13.5 73.5 -13.5 113.5s4.5 77.667 13.5 113
s27.167 66.666 54.5 93.999c18.667 18 40.834 32.333 66.501 43s54.5 16 86.5 16c3.33301 0 7.5 -0.166992 12.5 -0.5s9.83301 -0.833008 14.5 -1.5l16 -2l-43 73h-120v59h85l-45 75h89l44 -75h98v-59h-63l83 -142c18 -30.667 31 -61.167 39 -91.5s12 -64.166 12 -101.499z
M412 253c0 30 -3.16699 59 -9.5 87s-18.5 51.333 -36.5 70c-10.667 10.667 -23.5 19.334 -38.5 26.001s-32.5 10 -52.5 10s-37.333 -3.33301 -52 -10s-27.334 -15.334 -38.001 -26.001c-18 -18.667 -30.167 -42 -36.5 -70s-9.5 -57 -9.5 -87s3.16699 -59 9.5 -87
s18.5 -51.333 36.5 -70c10.667 -10.667 23.334 -19.334 38.001 -26.001s32 -10 52 -10s37.5 3.33301 52.5 10s27.833 15.334 38.5 26.001c18 18.667 30.167 42 36.5 70s9.5 57 9.5 87z" />
    <glyph glyph-name="ntilde" unicode="&#xf1;" horiz-adv-x="585" 
d="M417 0l0.00195312 321c0 38 -8.5 67.667 -25.5 89s-45.5 32 -85.5 32c-24.667 0 -46.334 -7.16699 -65.001 -21.5s-33.667 -33.166 -45 -56.499c-8.66699 -18.667 -13.834 -40 -15.501 -64s-2.5 -45.667 -2.5 -65v-235h-85v506h74l7 -76
c6.66699 14.667 15.667 27.5 27 38.5s24 20.167 38 27.5s28.667 13 44 17s30 6 44 6c58 0 101.667 -16.333 131 -49s44 -78.334 44 -137.001v-333h-85zM465.002 647c-11.333 -14 -25.1699 -26.5 -41.5029 -37.5s-36.166 -16.5 -59.499 -16.5
c-15.333 0 -28.666 2.16699 -39.999 6.5s-22 9.16602 -32 14.499c-9.33301 5.33301 -18.833 10.166 -28.5 14.499s-19.834 6.5 -30.501 6.5c-13.333 0 -24.666 -2.33301 -33.999 -7s-18.666 -11.667 -27.999 -21l-39 42c13.333 14.667 27.833 27.334 43.5 38.001
s35.167 16 58.5 16c14 0 26.5 -2.33301 37.5 -7s21.5 -9.66699 31.5 -15s20 -10.333 30 -15s20.667 -7 32 -7c13.333 0 25.333 2.83301 36 8.5s19.667 12.834 27 21.501z" />
    <glyph glyph-name="ograve" unicode="&#xf2;" horiz-adv-x="558" 
d="M504 253c0 -40 -5 -77.667 -15 -113s-29 -66.666 -57 -93.999c-18.667 -18 -40.834 -32.333 -66.501 -43s-54.5 -16 -86.5 -16s-60.833 5.33301 -86.5 16s-47.834 25 -66.501 43c-28 27.333 -47 58.666 -57 93.999s-15 73 -15 113s5 77.667 15 113s29 66.666 57 93.999
c18.667 18 40.834 32.333 66.501 43s54.5 16 86.5 16s60.833 -5.33301 86.5 -16s47.834 -25 66.501 -43c28 -27.333 47 -58.666 57 -93.999s15 -73 15 -113zM417 253c0 30 -3.33301 59 -10 87s-19 51.333 -37 70c-10.667 10.667 -23.5 19.334 -38.5 26.001
s-32.5 10 -52.5 10s-37.5 -3.33301 -52.5 -10s-27.833 -15.334 -38.5 -26.001c-18 -18.667 -30.333 -42 -37 -70s-10 -57 -10 -87s3.33301 -59 10 -87s19 -51.333 37 -70c10.667 -10.667 23.5 -19.334 38.5 -26.001s32.5 -10 52.5 -10s37.5 3.33301 52.5 10
s27.833 15.334 38.5 26.001c18 18.667 30.333 42 37 70s10 57 10 87zM175 653l45 71l170 -123l-30 -47z" />
    <glyph glyph-name="oacute" unicode="&#xf3;" horiz-adv-x="558" 
d="M504 253c0 -40 -5 -77.667 -15 -113s-29 -66.666 -57 -93.999c-18.667 -18 -40.834 -32.333 -66.501 -43s-54.5 -16 -86.5 -16s-60.833 5.33301 -86.5 16s-47.834 25 -66.501 43c-28 27.333 -47 58.666 -57 93.999s-15 73 -15 113s5 77.667 15 113s29 66.666 57 93.999
c18.667 18 40.834 32.333 66.501 43s54.5 16 86.5 16s60.833 -5.33301 86.5 -16s47.834 -25 66.501 -43c28 -27.333 47 -58.666 57 -93.999s15 -73 15 -113zM417 253c0 30 -3.33301 59 -10 87s-19 51.333 -37 70c-10.667 10.667 -23.5 19.334 -38.5 26.001
s-32.5 10 -52.5 10s-37.5 -3.33301 -52.5 -10s-27.833 -15.334 -38.5 -26.001c-18 -18.667 -30.333 -42 -37 -70s-10 -57 -10 -87s3.33301 -59 10 -87s19 -51.333 37 -70c10.667 -10.667 23.5 -19.334 38.5 -26.001s32.5 -10 52.5 -10s37.5 3.33301 52.5 10
s27.833 15.334 38.5 26.001c18 18.667 30.333 42 37 70s10 57 10 87zM204 554l-30 47l170 123l45 -71z" />
    <glyph glyph-name="ocircumflex" unicode="&#xf4;" horiz-adv-x="558" 
d="M504 253c0 -40 -5 -77.667 -15 -113s-29 -66.666 -57 -93.999c-18.667 -18 -40.834 -32.333 -66.501 -43s-54.5 -16 -86.5 -16s-60.833 5.33301 -86.5 16s-47.834 25 -66.501 43c-28 27.333 -47 58.666 -57 93.999s-15 73 -15 113s5 77.667 15 113s29 66.666 57 93.999
c18.667 18 40.834 32.333 66.501 43s54.5 16 86.5 16s60.833 -5.33301 86.5 -16s47.834 -25 66.501 -43c28 -27.333 47 -58.666 57 -93.999s15 -73 15 -113zM417 253c0 30 -3.33301 59 -10 87s-19 51.333 -37 70c-10.667 10.667 -23.5 19.334 -38.5 26.001
s-32.5 10 -52.5 10s-37.5 -3.33301 -52.5 -10s-27.833 -15.334 -38.5 -26.001c-18 -18.667 -30.333 -42 -37 -70s-10 -57 -10 -87s3.33301 -59 10 -87s19 -51.333 37 -70c10.667 -10.667 23.5 -19.334 38.5 -26.001s32.5 -10 52.5 -10s37.5 3.33301 52.5 10
s27.833 15.334 38.5 26.001c18 18.667 30.333 42 37 70s10 57 10 87zM388 555l-108 115l-107 -115l-45 45l125 131h55l125 -131z" />
    <glyph glyph-name="otilde" unicode="&#xf5;" horiz-adv-x="558" 
d="M504 253c0 -40 -5 -77.667 -15 -113s-29 -66.666 -57 -93.999c-18.667 -18 -40.834 -32.333 -66.501 -43s-54.5 -16 -86.5 -16s-60.833 5.33301 -86.5 16s-47.834 25 -66.501 43c-28 27.333 -47 58.666 -57 93.999s-15 73 -15 113s5 77.667 15 113s29 66.666 57 93.999
c18.667 18 40.834 32.333 66.501 43s54.5 16 86.5 16s60.833 -5.33301 86.5 -16s47.834 -25 66.501 -43c28 -27.333 47 -58.666 57 -93.999s15 -73 15 -113zM417 253c0 30 -3.33301 59 -10 87s-19 51.333 -37 70c-10.667 10.667 -23.5 19.334 -38.5 26.001
s-32.5 10 -52.5 10s-37.5 -3.33301 -52.5 -10s-27.833 -15.334 -38.5 -26.001c-18 -18.667 -30.333 -42 -37 -70s-10 -57 -10 -87s3.33301 -59 10 -87s19 -51.333 37 -70c10.667 -10.667 23.5 -19.334 38.5 -26.001s32.5 -10 52.5 -10s37.5 3.33301 52.5 10
s27.833 15.334 38.5 26.001c18 18.667 30.333 42 37 70s10 57 10 87zM447 653c-11.333 -14 -25.1699 -26.5 -41.5029 -37.5s-36.166 -16.5 -59.499 -16.5c-15.333 0 -28.666 2.16699 -39.999 6.5s-22 9.16602 -32 14.499c-9.33301 5.33301 -18.833 10.166 -28.5 14.499
s-19.834 6.5 -30.501 6.5c-13.333 0 -24.666 -2.33301 -33.999 -7s-18.666 -11.667 -27.999 -21l-39 42c13.333 14.667 27.833 27.334 43.5 38.001s35.167 16 58.5 16c14 0 26.5 -2.33301 37.5 -7s21.5 -9.66699 31.5 -15s20 -10.333 30 -15s20.667 -7 32 -7
c13.333 0 25.333 2.83301 36 8.5s19.667 12.834 27 21.501z" />
    <glyph glyph-name="odieresis" unicode="&#xf6;" horiz-adv-x="558" 
d="M504 253c0 -40 -5 -77.667 -15 -113s-29 -66.666 -57 -93.999c-18.667 -18 -40.834 -32.333 -66.501 -43s-54.5 -16 -86.5 -16s-60.833 5.33301 -86.5 16s-47.834 25 -66.501 43c-28 27.333 -47 58.666 -57 93.999s-15 73 -15 113s5 77.667 15 113s29 66.666 57 93.999
c18.667 18 40.834 32.333 66.501 43s54.5 16 86.5 16s60.833 -5.33301 86.5 -16s47.834 -25 66.501 -43c28 -27.333 47 -58.666 57 -93.999s15 -73 15 -113zM417 253c0 30 -3.33301 59 -10 87s-19 51.333 -37 70c-10.667 10.667 -23.5 19.334 -38.5 26.001
s-32.5 10 -52.5 10s-37.5 -3.33301 -52.5 -10s-27.833 -15.334 -38.5 -26.001c-18 -18.667 -30.333 -42 -37 -70s-10 -57 -10 -87s3.33301 -59 10 -87s19 -51.333 37 -70c10.667 -10.667 23.5 -19.334 38.5 -26.001s32.5 -10 52.5 -10s37.5 3.33301 52.5 10
s27.833 15.334 38.5 26.001c18 18.667 30.333 42 37 70s10 57 10 87zM154 599v92h92v-92h-92zM330 599v92h92v-92h-92z" />
    <glyph glyph-name="divide" unicode="&#xf7;" horiz-adv-x="652" 
d="M267 442v118h114v-118h-114zM75 261v78h502v-78h-502zM267 48v118h114v-118h-114z" />
    <glyph glyph-name="oslash" unicode="&#xf8;" horiz-adv-x="558" 
d="M504 253c0 -40 -4.99902 -77.667 -14.999 -113s-29 -66.666 -57 -93.999c-18.667 -18 -40.834 -32.333 -66.501 -43s-54.5 -16 -86.5 -16c-31.333 0 -59.333 5 -84 15l-36 -79l-54 25l38 83l-9 7.5c-2.66699 2.33301 -5.33398 4.83301 -8.00098 7.5
c-28 27.333 -47 58.666 -57 93.999s-15 73 -15 113s5 77.667 15 113s29 66.666 57 93.999c18.667 18 40.834 32.333 66.501 43s54.5 16 86.5 16c14.667 0 28.5 -1.16699 41.5 -3.5s25.5 -5.5 37.5 -9.5l36 79l54 -24l-37 -83c6.66699 -5.33301 13.667 -11.333 21 -18
c28 -27.333 47 -58.666 57 -93.999s15 -73 15 -113zM417.001 253c0 28 -2.83398 55.167 -8.50098 81.5s-16.5 49.166 -32.5 68.499l-150 -333c16.667 -6.66699 34.334 -10 53.001 -10c20 0 37.5 3.33301 52.5 10s27.833 15.334 38.5 26.001c18 18.667 30.333 42 37 70
s10 57 10 87zM327 438c-14.667 5.33301 -30.667 8 -48 8c-20 0 -37.5 -3.33301 -52.5 -10s-27.833 -15.334 -38.5 -26.001c-18 -18.667 -30.333 -42 -37 -70s-10 -57 -10 -87c0 -26.667 2.66699 -52.667 8 -78s15 -47.666 29 -66.999z" />
    <glyph glyph-name="ugrave" unicode="&#xf9;" horiz-adv-x="582" 
d="M415 0l-7.00098 76.999c-13.333 -29.333 -34.166 -51.5 -62.499 -66.5s-57.5 -22.5 -87.5 -22.5c-58 0 -101.333 16.333 -130 49s-43 78.334 -43 137.001v332h85v-320c0 -38 8 -67.667 24 -89s44 -32 84 -32c17.333 0 32.833 3.5 46.5 10.5s26.167 16.167 37.5 27.5
c16 16.667 27 37.667 33 63s9 51 9 77v263h85v-506h-74zM166.999 651.999l45 71l170 -123l-30 -47z" />
    <glyph glyph-name="uacute" unicode="&#xfa;" horiz-adv-x="582" 
d="M415 0l-7.00098 76.999c-13.333 -29.333 -34.166 -51.5 -62.499 -66.5s-57.5 -22.5 -87.5 -22.5c-58 0 -101.333 16.333 -130 49s-43 78.334 -43 137.001v332h85v-320c0 -38 8 -67.667 24 -89s44 -32 84 -32c17.333 0 32.833 3.5 46.5 10.5s26.167 16.167 37.5 27.5
c16 16.667 27 37.667 33 63s9 51 9 77v263h85v-506h-74zM216.999 552.999l-30 47l170 123l45 -71z" />
    <glyph glyph-name="ucircumflex" unicode="&#xfb;" horiz-adv-x="582" 
d="M415 0l-7.00098 76.999c-13.333 -29.333 -34.166 -51.5 -62.499 -66.5s-57.5 -22.5 -87.5 -22.5c-58 0 -101.333 16.333 -130 49s-43 78.334 -43 137.001v332h85v-320c0 -38 8 -67.667 24 -89s44 -32 84 -32c17.333 0 32.833 3.5 46.5 10.5s26.167 16.167 37.5 27.5
c16 16.667 27 37.667 33 63s9 51 9 77v263h85v-506h-74zM395.999 559.999l-108 115l-107 -115l-45 45l125 131h55l125 -131z" />
    <glyph glyph-name="udieresis" unicode="&#xfc;" horiz-adv-x="582" 
d="M415 0l-7.00098 76.999c-13.333 -29.333 -34.166 -51.5 -62.499 -66.5s-57.5 -22.5 -87.5 -22.5c-58 0 -101.333 16.333 -130 49s-43 78.334 -43 137.001v332h85v-320c0 -38 8 -67.667 24 -89s44 -32 84 -32c17.333 0 32.833 3.5 46.5 10.5s26.167 16.167 37.5 27.5
c16 16.667 27 37.667 33 63s9 51 9 77v263h85v-506h-74zM154.999 598.999v92h92v-92h-92zM330.999 598.999v92h92v-92h-92z" />
    <glyph glyph-name="yacute" unicode="&#xfd;" horiz-adv-x="498" 
d="M260 -104c-12 -32.667 -28.335 -58.833 -49.002 -78.5s-50 -29.5 -88 -29.5c-21.333 0 -38.666 1.33301 -51.999 4s-21.666 4.66699 -24.999 6v74c5.33301 -1.33301 11.333 -2.66602 18 -3.99902c5.33301 -1.33301 11.5 -2.33301 18.5 -3s14.833 -1 23.5 -1
c18 0 33.333 3.66699 46 11s22.667 20.666 30 39.999l32 85l-202 506h96l149 -399l142 399h89zM191.998 550.001l-30 47l170 123l45 -71z" />
    <glyph glyph-name="thorn" unicode="&#xfe;" horiz-adv-x="590" 
d="M536 252c0 -44 -6.5 -84.668 -19.5 -122.001s-32.167 -68.333 -57.5 -93c-16.667 -15.333 -36 -27.666 -58 -36.999s-48 -14 -78 -14c-14 0 -28.167 1.66699 -42.5 5s-28 8 -41 14s-24.833 13.5 -35.5 22.5s-19.334 19.167 -26.001 30.5v-259h-85v923h85v-275
c6.66699 11.333 15.334 21.5 26.001 30.5s22.5 16.5 35.5 22.5s26.667 10.667 41 14s28.5 5 42.5 5c30 0 56 -4.66699 78 -14s41.333 -21.666 58 -36.999c25.333 -24.667 44.5 -55.834 57.5 -93.501s19.5 -78.5 19.5 -122.5zM450 251.999c0 23.333 -2 46.667 -6 70
s-11.333 44.166 -22 62.499s-25.167 33.333 -43.5 45s-41.5 17.5 -69.5 17.5c-18.667 0 -34.167 -3.16699 -46.5 -9.5s-23.5 -14.166 -33.5 -23.499c-21.333 -18.667 -36 -42.334 -44 -71.001s-12 -59 -12 -91s4 -62.167 12 -90.5s22.667 -51.833 44 -70.5
c10 -9.33301 21.167 -17.166 33.5 -23.499s27.833 -9.5 46.5 -9.5c28 0 51.167 5.66699 69.5 17s32.833 26.333 43.5 45s18 39.5 22 62.5s6 46.167 6 69.5z" />
    <glyph glyph-name="ydieresis" unicode="&#xff;" horiz-adv-x="498" 
d="M260 -104c-12 -32.667 -28.335 -58.833 -49.002 -78.5s-50 -29.5 -88 -29.5c-21.333 0 -38.666 1.33301 -51.999 4s-21.666 4.66699 -24.999 6v74c5.33301 -1.33301 11.333 -2.66602 18 -3.99902c5.33301 -1.33301 11.5 -2.33301 18.5 -3s14.833 -1 23.5 -1
c18 0 33.333 3.66699 46 11s22.667 20.666 30 39.999l32 85l-202 506h96l149 -399l142 399h89zM116.998 599.001v92h92v-92h-92zM292.998 599.001v92h92v-92h-92z" />
    <glyph glyph-name="dotlessi" unicode="&#x131;" horiz-adv-x="273" 
d="M94 0v506h86v-506h-86z" />
    <glyph glyph-name="Lslash" unicode="&#x141;" horiz-adv-x="565" 
d="M121 0v296l-65 -40l-33 52l98 61v340h89v-285l127 79l33 -53l-160 -99v-268h341v-83h-430z" />
    <glyph glyph-name="lslash" unicode="&#x142;" horiz-adv-x="333" 
d="M195 396v-273c0 -17.333 3.33301 -30.333 10 -39s18.667 -13 36 -13h28c2.66699 0 5 0.333008 7 1v-72c-4 -1.33301 -9 -2.33301 -15 -3c-10 -2 -25 -3 -45 -3c-37.333 0 -64.333 10.667 -81 32s-25 52 -25 92v225l-57 -35l-33 52l90 56v306h85v-253l80 50l33 -53z" />
    <glyph glyph-name="OE" unicode="&#x152;" horiz-adv-x="983" 
d="M512 0l-0.00292969 64.999c-19.333 -24.667 -44.666 -43.834 -75.999 -57.501s-68.333 -20.5 -111 -20.5c-43.333 0 -79.5 6.5 -108.5 19.5s-55.833 32.167 -80.5 57.5c-18 18.667 -32.5 39 -43.5 61s-19.333 45.333 -25 70s-9.5 50.5 -11.5 77.5s-3 54.5 -3 82.5
s1 55.5 3 82.5s5.83301 52.667 11.5 77s14 47.5 25 69.5s25.5 42.333 43.5 61c24.667 24.667 51.5 43.834 80.5 57.501s65.167 20.5 108.5 20.5c42.667 0 79.834 -7.66699 111.501 -23s56.834 -34.666 75.501 -57.999v67h420v-83h-338v-206h289v-84h-289v-253h338v-83h-420z
M506.997 354.999c0 21.333 -0.49707 43 -1.49707 65s-3.5 43.167 -7.5 63.5s-9.5 39.5 -16.5 57.5s-16.5 34 -28.5 48c-13.333 15.333 -30.333 28 -51 38s-46.334 15 -77.001 15c-26.667 0 -49.5 -4.16699 -68.5 -12.5s-35.167 -18.833 -48.5 -31.5
c-14 -14 -25.333 -30.167 -34 -48.5s-15.334 -38.166 -20.001 -59.499s-7.66699 -43.5 -9 -66.5s-2 -45.833 -2 -68.5c0 -22 0.666992 -44 2 -66s4 -43.167 8 -63.5s9.66699 -39.666 17 -57.999s17 -34.5 29 -48.5c13.333 -15.333 30.166 -27.833 50.499 -37.5
s45.5 -14.5 75.5 -14.5c28 0 51.833 4.16699 71.5 12.5s36.167 19.166 49.5 32.499c14 14 25 30.167 33 48.5s14 38.166 18 59.499s6.66699 43.5 8 66.5s2 45.833 2 68.5z" />
    <glyph glyph-name="oe" unicode="&#x153;" horiz-adv-x="889" 
d="M490 229c0 -17.333 1.16699 -34.8301 3.5 -52.4971s7.83301 -34.834 16.5 -51.501c10 -19.333 24.5 -35.5 43.5 -48.5s43.5 -19.5 73.5 -19.5c12 0 24.333 1.83301 37 5.5s24.5 9.16699 35.5 16.5s20.667 16.666 29 27.999s14.166 25 17.499 41h85
c-3.33301 -25.333 -10.333 -47.333 -21 -66s-25.667 -36 -45 -52c-18.667 -15.333 -38.667 -26.666 -60 -33.999s-47 -11 -77 -11c-39.333 0 -74.5 8 -105.5 24s-55.5 39.333 -73.5 70c-4.66699 -7.33301 -9 -13.833 -13 -19.5s-8.33301 -10.834 -13 -15.501
c-18 -18.667 -39.667 -33.334 -65 -44.001s-54 -16 -86 -16s-60.5 5.5 -85.5 16.5s-46.5 25.833 -64.5 44.5c-27.333 28 -45.5 59.333 -54.5 94s-13.5 72 -13.5 112s4.33301 77.5 13 112.5s26.667 66.5 54 94.5c18 18.667 39.667 33.5 65 44.5s54 16.5 86 16.5
s60.667 -5.66699 86 -17s47 -26.333 65 -45c4.66699 -4.66699 8.83398 -9.5 12.501 -14.5s7.5 -10.833 11.5 -17.5l5 8c16 26 38.833 46.833 68.5 62.5s64.167 23.5 103.5 23.5c43.333 0 78.833 -8.33301 106.5 -25s50.5 -39 68.5 -67
c15.333 -23.333 25.833 -48.5 31.5 -75.5s8.5 -58.833 8.5 -95.5v-27h-349zM752 296.003c-0.666992 23.333 -3.83496 44.334 -9.50195 63.001s-14.5 35 -26.5 49c-10 11.333 -22.667 21 -38 29s-33.666 12 -54.999 12s-40.166 -4 -56.499 -12s-30 -19 -41 -33
s-19.5 -30.333 -25.5 -49s-9 -38.334 -9 -59.001h261zM406.999 251.004c0 31.333 -3.16504 61.334 -9.49805 90.001s-18.833 52.667 -37.5 72c-10 10 -22 18.333 -36 25s-31.333 10 -52 10c-18.667 0 -34.5 -2.83301 -47.5 -8.5s-24.5 -13.167 -34.5 -22.5
c-20.667 -18.667 -34.334 -43 -41.001 -73s-10 -61 -10 -93c0 -30 3.16699 -59.167 9.5 -87.5s18.166 -52.166 35.499 -71.499c10 -11.333 22 -20.333 36 -27s31.333 -10 52 -10c24 0 43.667 4.16699 59 12.5s28 19.166 38 32.499c14.667 19.333 24.667 42.166 30 68.499
s8 53.833 8 82.5z" />
    <glyph glyph-name="Scaron" unicode="&#x160;" horiz-adv-x="635" 
d="M585 195c0 -30 -5.66406 -55.998 -16.9971 -77.998s-25.666 -41.667 -42.999 -59c-24.667 -24 -54.834 -41.833 -90.501 -53.5s-72.5 -17.5 -110.5 -17.5c-86 0 -153.667 22.667 -203 68c-22.667 21.333 -41 46.5 -55 75.5s-21 60.5 -21 94.5h93
c0 -21.333 4.66699 -41.833 14 -61.5s21.333 -36.5 36 -50.5c16 -15.333 36.333 -26.5 61 -33.5s49.667 -10.5 75 -10.5c27.333 0 52.166 3 74.499 9s41.5 16.667 57.5 32c11.333 10 20.166 21.5 26.499 34.5s9.5 29.167 9.5 48.5c0 28 -9.33301 52.333 -28 73
s-49 34.334 -91 41.001c-19.333 3.33301 -38 6.16602 -56 8.49902s-36.667 5.16602 -56 8.49902c-26.667 4 -51.5 10.667 -74.5 20s-43 21.833 -60 37.5s-30.333 34.334 -40 56.001s-14.5 46.5 -14.5 74.5c0 26.667 5.5 52.167 16.5 76.5s26.167 45.5 45.5 63.5
c50 46.667 112 70 186 70c34.667 0 68.167 -5.66699 100.5 -17s60.166 -28.333 83.499 -51c43.333 -41.333 66 -92 68 -152h-93c-1.33301 17.333 -5 33.666 -11 48.999s-14 28.666 -24 39.999c-13.333 15.333 -30.5 27.333 -51.5 36s-45.5 13 -73.5 13
c-25.333 0 -48.833 -3.83301 -70.5 -11.5s-40.167 -20.167 -55.5 -37.5c-9.33301 -10.667 -16.5 -22.167 -21.5 -34.5s-7.5 -26.5 -7.5 -42.5s3 -29.833 9 -41.5s14 -21.5 24 -29.5s21.333 -14.333 34 -19s25.667 -8 39 -10c20 -2.66699 39.833 -5.5 59.5 -8.5
s39.167 -6.16699 58.5 -9.5c59.333 -8.66699 107 -30.167 143 -64.5s54 -79.833 54 -136.5zM213.003 935.002l108 -115l107 115l45 -45l-125 -131h-55l-125 131z" />
    <glyph glyph-name="scaron" unicode="&#x161;" horiz-adv-x="521" 
d="M468 147c0 -22 -3.66504 -41.4961 -10.998 -58.4961s-17 -31.833 -29 -44.5c-19.333 -20 -43.333 -34.5 -72 -43.5s-59.667 -13.5 -93 -13.5c-32 0 -62 4.16699 -90 12.5s-52.667 23.166 -74 44.499c-15.333 15.333 -27.333 33.166 -36 53.499s-13 41.166 -13 62.499h85
c0.666992 -17.333 4.66699 -32.5 12 -45.5s17 -24.167 29 -33.5c11.333 -8.66699 25.333 -14.667 42 -18s33 -5 49 -5c17.333 0 33.833 1.83301 49.5 5.5s30.167 11.167 43.5 22.5c7.33301 5.33301 13.333 13 18 23s7 20.667 7 32c0 19.333 -6.66699 35.333 -20 48
s-33 20.667 -59 24c-5.33301 0.666992 -12.666 1.66699 -21.999 3s-19.333 2.66602 -30 3.99902l-32.5 4c-11 1.33301 -20.833 2.66602 -29.5 3.99902c-38 6 -68.167 20.5 -90.5 43.5s-33.5 53.833 -33.5 92.5c0 19.333 4.16699 37.833 12.5 55.5s18.166 32.167 29.499 43.5
c16.667 17.333 37.667 31 63 41s54 15 86 15c34 0 65 -5.33301 93 -16s50.667 -26.667 68 -48c11.333 -13.333 20.166 -27.666 26.499 -42.999s9.5 -33.333 9.5 -54h-85c-0.666992 13.333 -3.83398 25.5 -9.50098 36.5s-12.167 19.833 -19.5 26.5c-20 18 -47.667 27 -83 27
c-10 0 -19.333 -0.333008 -28 -1s-19 -3.66699 -31 -9c-16 -6.66699 -28.5 -16.167 -37.5 -28.5s-13.5 -25.5 -13.5 -39.5c0 -21.333 6 -36.833 18 -46.5s28.667 -16.167 50 -19.5c14 -2 31 -4.16699 51 -6.5s43.667 -5.83301 71 -10.5c36 -6 66.5 -21.333 91.5 -46
s37.5 -56 37.5 -94zM167.002 711.004l98 -103l96 103l40 -40l-112 -118h-50l-112 118z" />
    <glyph glyph-name="Ydieresis" unicode="&#x178;" horiz-adv-x="566" 
d="M328 288v-288h-90v288l-238 421h100l186 -337l185 337h95zM151 778v92h92v-92h-92zM327 778v92h92v-92h-92z" />
    <glyph glyph-name="Zcaron" unicode="&#x17d;" horiz-adv-x="612" 
d="M43 0v89l413 537h-409v83h515v-90l-414 -536h418v-83h-523zM196 930l108 -115l107 115l45 -45l-125 -131h-55l-125 131z" />
    <glyph glyph-name="zcaron" unicode="&#x17e;" horiz-adv-x="501" 
d="M53 0v75l294 357h-294v74h397v-75l-293 -357h296v-74h-400zM156 710l98 -103l96 103l40 -40l-112 -118h-50l-112 118z" />
    <glyph glyph-name="florin" unicode="&#x192;" horiz-adv-x="527" 
d="M479 635c-3.33301 0.666992 -9.66602 1.83398 -18.999 3.50098s-22.333 2.5 -39 2.5c-8 0 -16.333 -1.33301 -25 -4s-16.834 -7.33398 -24.501 -14.001s-14.667 -15.667 -21 -27s-11.166 -26 -14.499 -44l-23 -115h141v-75h-156l-67 -339
c-8.66699 -43.333 -26.834 -77.166 -54.501 -101.499s-58.834 -36.5 -93.501 -36.5c-19.333 0 -34.333 0.833008 -45 2.5s-20.667 3.5 -30 5.5v75c3.33301 -0.666992 9.66602 -1.83398 18.999 -3.50098s22.333 -2.5 39 -2.5c8 0 16.333 1.33301 25 4
s16.834 7.33398 24.501 14.001s14.667 15.667 21 27s11.166 26 14.499 44l62 311h-102v75h117l28 143c8.66699 43.333 26.834 77.166 54.501 101.499s58.834 36.5 93.501 36.5c19.333 0 34.333 -0.833008 45 -2.5s20.667 -3.5 30 -5.5v-75z" />
    <glyph glyph-name="circumflex" unicode="&#x2c6;" horiz-adv-x="355" 
d="M285 552l-108 115l-107 -115l-45 45l125 131h55l125 -131z" />
    <glyph glyph-name="caron" unicode="&#x2c7;" horiz-adv-x="368" 
d="M77 930l108 -115l107 115l45 -45l-125 -131h-55l-125 131z" />
    <glyph glyph-name="breve" unicode="&#x2d8;" horiz-adv-x="352" 
d="M338 720c-2 -22 -6.66504 -42.5 -13.998 -61.5s-17.833 -35.5 -31.5 -49.5s-30.334 -25 -50.001 -33s-42.5 -12 -68.5 -12s-49 4 -69 12s-36.833 19 -50.5 33s-24.167 30.5 -31.5 49.5s-12 39.5 -14 61.5h68c3.33301 -28 12.833 -50.333 28.5 -67s38.5 -25 68.5 -25
s52.667 8.33301 68 25s24.666 39 27.999 67h68z" />
    <glyph glyph-name="dotaccent" unicode="&#x2d9;" horiz-adv-x="275" 
d="M88 622v100h99v-100h-99z" />
    <glyph glyph-name="ring" unicode="&#x2da;" horiz-adv-x="220" 
d="M220 670c0 -14 -2.5 -27.333 -7.5 -40s-12.167 -24 -21.5 -34s-20.833 -18 -34.5 -24s-29.167 -9 -46.5 -9s-32.833 3 -46.5 9s-25.167 14 -34.5 24s-16.5 21.333 -21.5 34s-7.5 26 -7.5 40s2.5 27.333 7.5 40s12.167 24 21.5 34s20.833 18 34.5 24s29.167 9 46.5 9
s32.833 -3 46.5 -9s25.167 -14 34.5 -24s16.5 -21.333 21.5 -34s7.5 -26 7.5 -40zM164 670c0 15.333 -4.83301 28.5 -14.5 39.5s-22.834 16.5 -39.501 16.5s-30 -5.5 -40 -16.5s-15 -24.167 -15 -39.5s5 -28.333 15 -39s23.333 -16 40 -16s29.834 5.33301 39.501 16
s14.5 23.667 14.5 39z" />
    <glyph glyph-name="ogonek" unicode="&#x2db;" horiz-adv-x="174" 
d="M78 -234l-69 176h78l78 -135z" />
    <glyph glyph-name="tilde" unicode="&#x2dc;" horiz-adv-x="360" 
d="M346 647c-11.333 -14 -25.1699 -26.5 -41.5029 -37.5s-36.166 -16.5 -59.499 -16.5c-15.333 0 -28.666 2.16699 -39.999 6.5s-22 9.16602 -32 14.499c-9.33301 5.33301 -18.833 10.166 -28.5 14.499s-19.834 6.5 -30.501 6.5c-13.333 0 -24.666 -2.33301 -33.999 -7
s-18.666 -11.667 -27.999 -21l-39 42c13.333 14.667 27.833 27.334 43.5 38.001s35.167 16 58.5 16c14 0 26.5 -2.33301 37.5 -7s21.5 -9.66699 31.5 -15s20 -10.333 30 -15s20.667 -7 32 -7c13.333 0 25.333 2.83301 36 8.5s19.667 12.834 27 21.501z" />
    <glyph glyph-name="hungarumlaut" unicode="&#x2dd;" horiz-adv-x="459" 
d="M263 553l-32 47l172 129l47 -72zM50 553l-32 47l172 129l47 -72z" />
    <glyph glyph-name="uni03A9" unicode="&#x3a9;" horiz-adv-x="858" 
d="M790 355c0 -51.333 -9.16699 -99.333 -27.5 -144s-43.5 -83.667 -75.5 -117s-70 -59.5 -114 -78.5s-92 -28.5 -144 -28.5s-100 9.5 -144 28.5s-82 45 -114 78s-57.167 71.833 -75.5 116.5s-27.5 92.667 -27.5 144s9.16699 99.333 27.5 144s43.5 83.667 75.5 117
s70 59.5 114 78.5s92 28.5 144 28.5s100 -9.5 144 -28.5s82 -45 114 -78s57.167 -71.833 75.5 -116.5s27.5 -92.667 27.5 -144zM723 355c0 44 -7 84.5 -21 121.5s-33.833 69 -59.5 96s-56.667 48 -93 63s-76.5 22.5 -120.5 22.5s-84.167 -7.66699 -120.5 -23
s-67.333 -36.5 -93 -63.5s-45.5 -59 -59.5 -96s-21 -77.5 -21 -121.5s7 -84.5 21 -121.5s33.833 -69 59.5 -96s56.667 -48 93 -63s76.5 -22.5 120.5 -22.5s84.167 7.66699 120.5 23s67.333 36.5 93 63.5s45.5 59 59.5 96s21 77.5 21 121.5zM593 421
c0 -19.333 -3.66699 -36.833 -11 -52.5s-17.166 -28.834 -29.499 -39.501s-26.833 -18.834 -43.5 -24.501s-34 -8.5 -52 -8.5h-74v-135h-67v383h141c18 0 35.333 -2.83301 52 -8.5s31.167 -13.667 43.5 -24s22.166 -23.166 29.499 -38.499s11 -32.666 11 -51.999zM523 421
c0 19.333 -6.5 34.334 -19.5 45.001s-28.5 16 -46.5 16h-75v-124h75c20 0 36 5.16699 48 15.5s18 26.166 18 47.499z" />
    <glyph glyph-name="pi" unicode="&#x3c0;" horiz-adv-x="640" 
d="M570 4c-2.66699 -1.33301 -9.5 -3.5 -20.5 -6.5s-26.5 -4.5 -46.5 -4.5s-37 3.5 -51 10.5s-25.333 16.333 -34 28s-14.834 25 -18.501 40s-5.5 30.5 -5.5 46.5v320h-167v-439h-84v439h-78v68h491v-68h-77v-310c0 -18 3 -32.833 9 -44.5s18.333 -17.5 37 -17.5
c14 0 24.333 0.5 31 1.5s11.334 2.16699 14.001 3.5v-67z" />
    <glyph glyph-name="endash" unicode="&#x2013;" horiz-adv-x="655" 
d="M70 262v79h515v-79h-515z" />
    <glyph glyph-name="emdash" unicode="&#x2014;" horiz-adv-x="1125" 
d="M70 262v79h985v-79h-985z" />
    <glyph glyph-name="quoteleft" unicode="&#x2018;" horiz-adv-x="274" 
d="M199 672c-26 -11.333 -43.167 -25.332 -51.5 -41.999s-12.5 -39.334 -12.5 -68.001h62v-117h-122v117c0 37.333 7.16699 69 21.5 95s39.833 46.667 76.5 62z" />
    <glyph glyph-name="quoteright" unicode="&#x2019;" horiz-adv-x="264" 
d="M194 588c0 -37.333 -7.16699 -69.001 -21.5 -95.001s-39.833 -46.667 -76.5 -62l-26 47c26 11.333 43.167 25.333 51.5 42s12.5 39.334 12.5 68.001h-62v117h122v-117z" />
    <glyph glyph-name="quotesinglbase" unicode="&#x201a;" horiz-adv-x="279" 
d="M204 -2c0 -37.333 -7.16699 -69.001 -21.5 -95.001s-39.833 -46.667 -76.5 -62l-26 47c26 11.333 43.167 25.333 51.5 42s12.5 39.334 12.5 68.001h-62v117h122v-117z" />
    <glyph glyph-name="quotedblleft" unicode="&#x201c;" horiz-adv-x="472" 
d="M402 672c-26 -11.333 -43.167 -25.332 -51.5 -41.999s-12.5 -39.334 -12.5 -68.001h62v-117h-122v117c0 37.333 7.16699 69 21.5 95s39.833 46.667 76.5 62zM204 672.001c-26 -11.333 -43.167 -25.332 -51.5 -41.999s-12.5 -39.334 -12.5 -68.001h62v-117h-122v117
c0 37.333 7.16699 69 21.5 95s39.833 46.667 76.5 62z" />
    <glyph glyph-name="quotedblright" unicode="&#x201d;" horiz-adv-x="462" 
d="M397 586c0 -37.333 -7.16699 -69.001 -21.5 -95.001s-39.833 -46.667 -76.5 -62l-26 47c26 11.333 43.167 25.333 51.5 42s12.5 39.334 12.5 68.001h-62v117h122v-117zM199 585.999c0 -37.333 -7.16699 -69.001 -21.5 -95.001s-39.833 -46.667 -76.5 -62l-26 47
c26 11.333 43.167 25.333 51.5 42s12.5 39.334 12.5 68.001h-62v117h122v-117z" />
    <glyph glyph-name="quotedblbase" unicode="&#x201e;" horiz-adv-x="492" 
d="M407 -1c0 -37.333 -7.16699 -69.001 -21.5 -95.001s-39.833 -46.667 -76.5 -62l-26 47c26 11.333 43.167 25.333 51.5 42s12.5 39.334 12.5 68.001h-62v117h122v-117zM209 -1.00098c0 -37.333 -7.16699 -69.001 -21.5 -95.001s-39.833 -46.667 -76.5 -62l-26 47
c26 11.333 43.167 25.333 51.5 42s12.5 39.334 12.5 68.001h-62v117h122v-117z" />
    <glyph glyph-name="dagger" unicode="&#x2020;" horiz-adv-x="566" 
d="M325 433v-558h-83v558h-187v73h187v203h83v-203h186v-73h-186z" />
    <glyph glyph-name="daggerdbl" unicode="&#x2021;" horiz-adv-x="566" 
d="M324 78v-203h-82v203h-187v73h187v282h-187v73h187v203h82v-203h187v-73h-187v-282h187v-73h-187z" />
    <glyph glyph-name="bullet" unicode="&#x2022;" horiz-adv-x="435" 
d="M345 292c0 -18 -3.33301 -35 -10 -51s-15.667 -29.833 -27 -41.5s-24.666 -21 -39.999 -28s-32 -10.5 -50 -10.5s-34.667 3.5 -50 10.5s-28.833 16.333 -40.5 28s-20.834 25.5 -27.501 41.5s-10 33 -10 51s3.33301 35 10 51s15.834 29.833 27.501 41.5s25.167 21 40.5 28
s32 10.5 50 10.5s34.667 -3.5 50 -10.5s28.666 -16.333 39.999 -28s20.333 -25.5 27 -41.5s10 -33 10 -51z" />
    <glyph glyph-name="ellipsis" unicode="&#x2026;" horiz-adv-x="805" 
d="M613 0v115h115v-115h-115zM345 0v115h114v-115h-114zM77 0v115h114v-115h-114z" />
    <glyph glyph-name="perthousand" unicode="&#x2030;" horiz-adv-x="1175" 
d="M1125 168c0 -21.333 -2 -41.833 -6 -61.5s-11.667 -37.5 -23 -53.5c-12.667 -18.667 -29.334 -34.334 -50.001 -47.001s-46 -19 -76 -19s-55.167 6.33301 -75.5 19s-36.833 28.334 -49.5 47.001c-11.333 16 -19 33.833 -23 53.5s-6 40.167 -6 61.5s2 42 6 62
s11.667 38 23 54c12.667 18.667 29.167 34.5 49.5 47.5s45.5 19.5 75.5 19.5s55.333 -6.5 76 -19.5s37.334 -28.833 50.001 -47.5c11.333 -16 19 -34 23 -54s6 -40.667 6 -62zM765 168c0 -21.333 -2 -41.833 -6 -61.5s-11.667 -37.5 -23 -53.5
c-12.667 -18.667 -29.167 -34.334 -49.5 -47.001s-45.5 -19 -75.5 -19s-55.333 6.33301 -76 19s-37.334 28.334 -50.001 47.001c-11.333 16 -19 33.833 -23 53.5s-6 40.167 -6 61.5s2 42 6 62s11.667 38 23 54c12.667 18.667 29.334 34.5 50.001 47.5s46 19.5 76 19.5
s55.167 -6.5 75.5 -19.5s36.833 -28.833 49.5 -47.5c11.333 -16 19 -34 23 -54s6 -40.667 6 -62zM189 -21l-54 41l515 704l55 -39zM370 540c0 -21.333 -2.16699 -41.833 -6.5 -61.5s-12.166 -37.5 -23.499 -53.5c-12.667 -18.667 -29.167 -34.334 -49.5 -47.001
s-45.5 -19 -75.5 -19s-55.333 6.33301 -76 19s-37.334 28.334 -50.001 47.001c-11.333 16 -19 33.833 -23 53.5s-6 40.167 -6 61.5s2 42 6 62s11.667 38 23 54c12.667 18.667 29.334 34.334 50.001 47.001s46 19 76 19s55.167 -6.33301 75.5 -19
s36.833 -28.334 49.5 -47.001c11.333 -16 19.166 -34 23.499 -54s6.5 -40.667 6.5 -62zM1052 168c0 19.333 -1.83301 37.333 -5.5 54s-10.834 30.667 -21.501 42c-6 6.66699 -13.333 12.167 -22 16.5s-19.667 6.5 -33 6.5s-24.333 -2.16699 -33 -6.5s-16 -9.83301 -22 -16.5
c-10.667 -11.333 -17.834 -25.333 -21.501 -42s-5.5 -34.667 -5.5 -54s1.83301 -37.166 5.5 -53.499s10.834 -30.166 21.501 -41.499c6 -6.66699 13.333 -12.167 22 -16.5s19.667 -6.5 33 -6.5s24.333 2.16699 33 6.5s16 9.83301 22 16.5
c10.667 11.333 17.834 25.166 21.501 41.499s5.5 34.166 5.5 53.499zM692 168c0 19.333 -1.83301 37.333 -5.5 54s-10.834 30.667 -21.501 42c-6 6.66699 -13.167 12.167 -21.5 16.5s-19.166 6.5 -32.499 6.5s-24.333 -2.16699 -33 -6.5s-16 -9.83301 -22 -16.5
c-10.667 -11.333 -18 -25.333 -22 -42s-6 -34.667 -6 -54s2 -37.166 6 -53.499s11.333 -30.166 22 -41.499c6 -6.66699 13.333 -12.167 22 -16.5s19.667 -6.5 33 -6.5s24.166 2.16699 32.499 6.5s15.5 9.83301 21.5 16.5c10.667 11.333 17.834 25.166 21.501 41.499
s5.5 34.166 5.5 53.499zM297 540c0 19.333 -2 37.333 -6 54s-11.333 30.667 -22 42c-6 6.66699 -13.167 12.167 -21.5 16.5s-19.166 6.5 -32.499 6.5s-24.333 -2.16699 -33 -6.5s-16 -9.83301 -22 -16.5c-10.667 -11.333 -18 -25.333 -22 -42s-6 -34.667 -6 -54
s2 -37.166 6 -53.499s11.333 -30.166 22 -41.499c6 -6.66699 13.333 -12.167 22 -16.5s19.667 -6.5 33 -6.5s24.166 2.16699 32.499 6.5s15.5 9.83301 21.5 16.5c10.667 11.333 18 25.166 22 41.499s6 34.166 6 53.499z" />
    <glyph glyph-name="guilsinglleft" unicode="&#x2039;" horiz-adv-x="318" 
d="M209 68l-164 230l164 230l53 -38l-111 -191l112 -191z" />
    <glyph glyph-name="guilsinglright" unicode="&#x203a;" horiz-adv-x="318" 
d="M109 68l-54 40l112 191l-111 191l53 38l164 -230z" />
    <glyph glyph-name="fraction" unicode="&#x2044;" horiz-adv-x="588" 
d="M63 -21l-54 41l515 704l55 -39z" />
    <glyph glyph-name="Euro" unicode="&#x20ac;" horiz-adv-x="586" 
d="M571 45c-21.333 -16.667 -46.5 -30.502 -75.5 -41.502s-64.5 -16.5 -106.5 -16.5c-40.667 0 -77.167 7 -109.5 21s-61.166 34 -86.499 60s-44.5 54.167 -57.5 84.5s-21.833 61.833 -26.5 94.5h-79v61h74c-0.666992 6.66699 -1 13.334 -1 20.001v20v19.5
c0 6.33301 0.333008 12.833 1 19.5h-74v61h79c4.66699 33.333 13.5 65.166 26.5 95.499s32.167 58.5 57.5 84.5s54.166 46 86.499 60s68.833 21 109.5 21c42 0 77.5 -5.5 106.5 -16.5s54.167 -24.833 75.5 -41.5l-33 -72c-18.667 14.667 -40 26.667 -64 36
s-52.333 14 -85 14c-27.333 0 -52.666 -5 -75.999 -15s-44.333 -25.333 -63 -46c-15.333 -17.333 -27 -36.166 -35 -56.499s-13.667 -41.5 -17 -63.5h280l-27 -61h-258c-0.666992 -6.66699 -1 -13.334 -1 -20.001v-20v-19.5c0 -6.33301 0.333008 -12.833 1 -19.5h230
l-27 -61h-198c3.33301 -21.333 9 -42.166 17 -62.499s19.667 -39.166 35 -56.499c18.667 -20.667 39.667 -36 63 -46s48.666 -15 75.999 -15c32.667 0 61 4.66699 85 14s45.333 21.333 64 36z" />
    <glyph glyph-name="trademark" unicode="&#x2122;" horiz-adv-x="837" 
d="M694 318v320l-106 -310h-49l-106 309v-319h-68v391h107l93 -282l93 282h104v-391h-68zM199 647v-329h-68v329h-111v62h290v-62h-111z" />
    <glyph glyph-name="Omega" unicode="&#x2126;" horiz-adv-x="858" 
d="M790 355c0 -51.333 -9.16699 -99.333 -27.5 -144s-43.5 -83.667 -75.5 -117s-70 -59.5 -114 -78.5s-92 -28.5 -144 -28.5s-100 9.5 -144 28.5s-82 45 -114 78s-57.167 71.833 -75.5 116.5s-27.5 92.667 -27.5 144s9.16699 99.333 27.5 144s43.5 83.667 75.5 117
s70 59.5 114 78.5s92 28.5 144 28.5s100 -9.5 144 -28.5s82 -45 114 -78s57.167 -71.833 75.5 -116.5s27.5 -92.667 27.5 -144zM723 355c0 44 -7 84.5 -21 121.5s-33.833 69 -59.5 96s-56.667 48 -93 63s-76.5 22.5 -120.5 22.5s-84.167 -7.66699 -120.5 -23
s-67.333 -36.5 -93 -63.5s-45.5 -59 -59.5 -96s-21 -77.5 -21 -121.5s7 -84.5 21 -121.5s33.833 -69 59.5 -96s56.667 -48 93 -63s76.5 -22.5 120.5 -22.5s84.167 7.66699 120.5 23s67.333 36.5 93 63.5s45.5 59 59.5 96s21 77.5 21 121.5zM593 421
c0 -19.333 -3.66699 -36.833 -11 -52.5s-17.166 -28.834 -29.499 -39.501s-26.833 -18.834 -43.5 -24.501s-34 -8.5 -52 -8.5h-74v-135h-67v383h141c18 0 35.333 -2.83301 52 -8.5s31.167 -13.667 43.5 -24s22.166 -23.166 29.499 -38.499s11 -32.666 11 -51.999zM523 421
c0 19.333 -6.5 34.334 -19.5 45.001s-28.5 16 -46.5 16h-75v-124h75c20 0 36 5.16699 48 15.5s18 26.166 18 47.499z" />
    <glyph glyph-name="partialdiff" unicode="&#x2202;" 
d="M119 0v78h148v520l-165 -121v95l170 123h81v-617h148v-78h-382z" />
    <glyph glyph-name="Delta" unicode="&#x2206;" horiz-adv-x="663" 
d="M528 260v331l-427 -427l-51 51l427 427h-331v67h452v-449h-70z" />
    <glyph glyph-name="product" unicode="&#x220f;" horiz-adv-x="812" 
d="M747 867c0 -5.33301 -2 -10.166 -6 -14.499s-8.66699 -6.5 -14 -6.5s-10.166 2.16699 -14.499 6.5s-6.5 9.16602 -6.5 14.499s2.16699 10 6.5 14s9.16602 6 14.499 6s10 -2 14 -6s6 -8.66699 6 -14zM746 615c0 -6 -2.33203 -10.999 -6.99902 -14.999s-9.66699 -6 -15 -6
c-6 0 -10.667 2.16699 -14 6.5s-5 9.16602 -5 14.499s2.16699 10.166 6.5 14.499s9.16602 6.5 14.499 6.5s10 -2.16699 14 -6.5s6 -9.16602 6 -14.499zM492.001 867.001c0 -5.33301 -2.16699 -10.166 -6.5 -14.499s-9.16602 -6.5 -14.499 -6.5s-10.166 2.16699 -14.499 6.5
s-6.5 9.16602 -6.5 14.499s2.16699 10 6.5 14s9.16602 6 14.499 6s10.166 -2 14.499 -6s6.5 -8.66699 6.5 -14zM620.001 737.001c0 -5.33301 -2 -10 -6 -14s-8.66699 -6 -14 -6s-10.166 2 -14.499 6s-6.5 8.66699 -6.5 14s2.16699 10.166 6.5 14.499s9.16602 6.5 14.499 6.5
s10 -2.16699 14 -6.5s6 -9.16602 6 -14.499zM744.001 365.001c0 -5.33301 -2.16699 -10.166 -6.5 -14.499s-9.16602 -6.5 -14.499 -6.5s-10.166 2.16699 -14.499 6.5s-6.5 9.16602 -6.5 14.499s2.16699 10 6.5 14s9.16602 6 14.499 6s10.166 -2 14.499 -6
s6.5 -8.66699 6.5 -14zM491.001 615.001c0 -5.33301 -2.16699 -10.166 -6.5 -14.499s-9.16602 -6.5 -14.499 -6.5s-10.166 2.16699 -14.499 6.5s-6.5 9.16602 -6.5 14.499s2.16699 10.166 6.5 14.499s9.16602 6.5 14.499 6.5s10.166 -2.16699 14.499 -6.5
s6.5 -9.16602 6.5 -14.499zM619.001 486.001c0 -5.33301 -2.16699 -10.166 -6.5 -14.499s-9.16602 -6.5 -14.499 -6.5s-10 2.16699 -14 6.5s-6 9.16602 -6 14.499s2 10.166 6 14.499s8.66699 6.5 14 6.5s10.166 -2.16699 14.499 -6.5s6.5 -9.16602 6.5 -14.499z
M237.001 867.001c0 -5.33301 -2.16699 -10.166 -6.5 -14.499s-9.16602 -6.5 -14.499 -6.5s-10 2.16699 -14 6.5s-6 9.16602 -6 14.499s2 10 6 14s8.66699 6 14 6s10.166 -2 14.499 -6s6.5 -8.66699 6.5 -14zM365.001 737.001c0 -5.33301 -2.16699 -10 -6.5 -14
s-9.16602 -6 -14.499 -6s-10.166 2 -14.499 6s-6.5 8.66699 -6.5 14s2.16699 10.166 6.5 14.499s9.16602 6.5 14.499 6.5s10.166 -2.16699 14.499 -6.5s6.5 -9.16602 6.5 -14.499zM745.001 113.001c0 -5.33301 -2.16699 -10.166 -6.5 -14.499s-9.16602 -6.5 -14.499 -6.5
s-10.166 2.16699 -14.499 6.5s-6.5 9.16602 -6.5 14.499s2.16699 10.166 6.5 14.499s9.16602 6.5 14.499 6.5s10.166 -2.16699 14.499 -6.5s6.5 -9.16602 6.5 -14.499zM488.001 365.001c0 -5.33301 -2.16699 -10.166 -6.5 -14.499s-9.16602 -6.5 -14.499 -6.5
s-10.166 2.16699 -14.499 6.5s-6.5 9.16602 -6.5 14.499s2.16699 10 6.5 14s9.16602 6 14.499 6s10.166 -2 14.499 -6s6.5 -8.66699 6.5 -14zM616.001 236.001c0 -5.33301 -2 -10.166 -6 -14.499s-8.66699 -6.5 -14 -6.5s-10.166 2.16699 -14.499 6.5
s-6.5 9.16602 -6.5 14.499s2.16699 10 6.5 14s9.16602 6 14.499 6s10 -2 14 -6s6 -8.66699 6 -14zM236.001 615.001c0 -5.33301 -2.16699 -10.166 -6.5 -14.499s-9.16602 -6.5 -14.499 -6.5s-10.166 2.16699 -14.499 6.5s-6.5 9.16602 -6.5 14.499
s2.16699 10.166 6.5 14.499s9.16602 6.5 14.499 6.5s10.166 -2.16699 14.499 -6.5s6.5 -9.16602 6.5 -14.499zM363.001 486.001c0 -5.33301 -2 -10.166 -6 -14.499s-8.66699 -6.5 -14 -6.5s-10.166 2.16699 -14.499 6.5s-6.5 9.16602 -6.5 14.499s2.16699 10.166 6.5 14.499
s9.16602 6.5 14.499 6.5s10 -2.16699 14 -6.5s6 -9.16602 6 -14.499zM110.001 737.001c0 -5.33301 -2.16699 -10 -6.5 -14s-9.16602 -6 -14.499 -6s-10.166 2 -14.499 6s-6.5 8.66699 -6.5 14s2.16699 10.166 6.5 14.499s9.16602 6.5 14.499 6.5
s10.166 -2.16699 14.499 -6.5s6.5 -9.16602 6.5 -14.499zM745.001 -138.999c0 -5.33301 -2.16699 -10.166 -6.5 -14.499s-9.16602 -6.5 -14.499 -6.5s-10.166 2.16699 -14.499 6.5s-6.5 9.16602 -6.5 14.499s2.16699 10.166 6.5 14.499s9.16602 6.5 14.499 6.5
s10.166 -2.16699 14.499 -6.5s6.5 -9.16602 6.5 -14.499zM489.001 113.001c0 -5.33301 -2.16699 -10.166 -6.5 -14.499s-9.16602 -6.5 -14.499 -6.5s-10.166 2.16699 -14.499 6.5s-6.5 9.16602 -6.5 14.499s2.16699 10.166 6.5 14.499s9.16602 6.5 14.499 6.5
s10.166 -2.16699 14.499 -6.5s6.5 -9.16602 6.5 -14.499zM617.001 -15.999c0 -5.33301 -2 -10.166 -6 -14.499s-8.66699 -6.5 -14 -6.5s-10.166 2.16699 -14.499 6.5s-6.5 9.16602 -6.5 14.499s2.16699 10.166 6.5 14.499s9.16602 6.5 14.499 6.5s10 -2.16699 14 -6.5
s6 -9.16602 6 -14.499zM233.001 365.001c0 -5.33301 -2.16699 -10.166 -6.5 -14.499s-9.16602 -6.5 -14.499 -6.5s-10 2.16699 -14 6.5s-6 9.16602 -6 14.499s2 10 6 14s8.66699 6 14 6s10.166 -2 14.499 -6s6.5 -8.66699 6.5 -14zM361.001 236.001
c0 -5.33301 -2.16699 -10.166 -6.5 -14.499s-9.16602 -6.5 -14.499 -6.5s-10.166 2.16699 -14.499 6.5s-6.5 9.16602 -6.5 14.499s2.16699 10 6.5 14s9.16602 6 14.499 6s10.166 -2 14.499 -6s6.5 -8.66699 6.5 -14zM109.001 486.001
c0 -5.33301 -2.16699 -10.166 -6.5 -14.499s-9.16602 -6.5 -14.499 -6.5s-10.166 2.16699 -14.499 6.5s-6.5 9.16602 -6.5 14.499s2.16699 10.166 6.5 14.499s9.16602 6.5 14.499 6.5s10.166 -2.16699 14.499 -6.5s6.5 -9.16602 6.5 -14.499zM489.001 -138.999
c0 -5.33301 -2.16699 -10.166 -6.5 -14.499s-9.16602 -6.5 -14.499 -6.5s-10.166 2.16699 -14.499 6.5s-6.5 9.16602 -6.5 14.499s2.16699 10.166 6.5 14.499s9.16602 6.5 14.499 6.5s10.166 -2.16699 14.499 -6.5s6.5 -9.16602 6.5 -14.499zM617.001 -267.999
c0 -5.33301 -2 -10.166 -6 -14.499s-8.66699 -6.5 -14 -6.5s-10.166 2.16699 -14.499 6.5s-6.5 9.16602 -6.5 14.499s2.16699 10 6.5 14s9.16602 6 14.499 6s10 -2 14 -6s6 -8.66699 6 -14zM234.001 113.001c0 -5.33301 -2 -10.166 -6 -14.499s-8.66699 -6.5 -14 -6.5
s-10.166 2.16699 -14.499 6.5s-6.5 9.16602 -6.5 14.499s2.16699 10.166 6.5 14.499s9.16602 6.5 14.499 6.5s10 -2.16699 14 -6.5s6 -9.16602 6 -14.499zM362.001 -15.999c0 -5.33301 -2.16699 -10.166 -6.5 -14.499s-9.16602 -6.5 -14.499 -6.5
s-10.166 2.16699 -14.499 6.5s-6.5 9.16602 -6.5 14.499s2.16699 10.166 6.5 14.499s9.16602 6.5 14.499 6.5s10.166 -2.16699 14.499 -6.5s6.5 -9.16602 6.5 -14.499zM106.001 236.001c0 -5.33301 -2.16699 -10.166 -6.5 -14.499s-9.16602 -6.5 -14.499 -6.5
s-10 2.16699 -14 6.5s-6 9.16602 -6 14.499s2 10 6 14s8.66699 6 14 6s10.166 -2 14.499 -6s6.5 -8.66699 6.5 -14zM234.001 -138.999c0 -5.33301 -2.16699 -10.166 -6.5 -14.499s-9.16602 -6.5 -14.499 -6.5s-10 2.16699 -14 6.5s-6 9.16602 -6 14.499s2 10.166 6 14.499
s8.66699 6.5 14 6.5s10.166 -2.16699 14.499 -6.5s6.5 -9.16602 6.5 -14.499zM362.001 -267.999c0 -5.33301 -2.16699 -10.166 -6.5 -14.499s-9.16602 -6.5 -14.499 -6.5s-10.166 2.16699 -14.499 6.5s-6.5 9.16602 -6.5 14.499s2.16699 10 6.5 14s9.16602 6 14.499 6
s10.166 -2 14.499 -6s6.5 -8.66699 6.5 -14zM107.001 -15.999c0 -5.33301 -2.16699 -10.166 -6.5 -14.499s-9.16602 -6.5 -14.499 -6.5s-10 2.16699 -14 6.5s-6 9.16602 -6 14.499s2 10.166 6 14.499s8.66699 6.5 14 6.5s10.166 -2.16699 14.499 -6.5
s6.5 -9.16602 6.5 -14.499zM107.001 -267.999c0 -5.33301 -2.16699 -10.166 -6.5 -14.499s-9.16602 -6.5 -14.499 -6.5s-10.166 2.16699 -14.499 6.5s-6.5 9.16602 -6.5 14.499s2.16699 10 6.5 14s9.16602 6 14.499 6s10.166 -2 14.499 -6s6.5 -8.66699 6.5 -14z" />
    <glyph glyph-name="summation" unicode="&#x2211;" horiz-adv-x="928" 
d="M76 -73v221h47v-175h683v175h46v-221h-776z" />
    <glyph glyph-name="minus" unicode="&#x2212;" horiz-adv-x="645" 
d="M70 262v79h515v-79h-515z" />
    <glyph glyph-name="radical" unicode="&#x221a;" horiz-adv-x="690" 
d="M580 766l-259 -774h-77l-179 512h91l127 -385l230 713h177v-66h-110z" />
    <glyph glyph-name="infinity" unicode="&#x221e;" horiz-adv-x="721" 
d="M542 328l0.00488281 -252.001h110v-76h-331c-38 0 -70.833 5.16699 -98.5 15.5s-51.167 24.833 -70.5 43.5c-38 36.667 -57 83.667 -57 141c0 18 3 35.333 9 52s14.167 32.167 24.5 46.5s22.666 27 36.999 38s29.833 20.167 46.5 27.5c-30 13.333 -55 33.5 -75 60.5
s-30 58.167 -30 93.5c0 31.333 4.66699 57.833 14 79.5s23.666 41.167 42.999 58.5c18 16.667 39.667 29.834 65 39.501s55 14.5 89 14.5c15.333 0 30.5 -0.666992 45.5 -2s28.5 -3.66602 40.5 -6.99902v-77c-21.333 4.66699 -48 7 -80 7
c-20.667 0 -38.334 -2.83301 -53.001 -8.5s-27.334 -13.167 -38.001 -22.5c-22.667 -21.333 -34 -48 -34 -80c0 -36.667 11.167 -65.334 33.5 -86.001s53.166 -31 92.499 -31h132v115h85v-115h111v-75h-111zM457.005 278.999l-0.000976562 48.998h-126
c-21.333 0 -40.833 -3.33301 -58.5 -10s-33.167 -15.667 -46.5 -27s-23.666 -25.166 -30.999 -41.499s-11 -33.833 -11 -52.5c0 -16 2.5 -30.667 7.5 -44s11.833 -24.666 20.5 -33.999c13.333 -14.667 29.833 -25.5 49.5 -32.5s40.167 -10.5 61.5 -10.5h134v203z" />
    <glyph glyph-name="integral" unicode="&#x222b;" horiz-adv-x="663" 
d="M562 164l-427 427v-331h-70v449h451v-67h-330l427 -427z" />
    <glyph glyph-name="approxequal" unicode="&#x2248;" horiz-adv-x="655" 
d="M580 374c-16 -16 -30.6641 -29.001 -43.9971 -39.001s-26 -18 -38 -24s-23.667 -10 -35 -12s-23.333 -3 -36 -3c-19.333 0 -38.333 3.33301 -57 10s-38 14.667 -58 24c-12.667 5.33301 -26.334 10.666 -41.001 15.999s-29.334 8 -44.001 8
c-6.66699 0 -13.5 -0.333008 -20.5 -1s-14.333 -2.66699 -22 -6s-16.167 -8.16602 -25.5 -14.499s-19.666 -15.166 -30.999 -26.499l-53 55c16 16 30.667 29 44 39s26 18 38 24s23.667 10 35 12s23.333 3 36 3c14.667 0 28.667 -1.66699 42 -5
s26.666 -7.66602 39.999 -12.999l39 -16c12.667 -5.33301 25.667 -10.333 39 -15c12 -4.66699 25 -7 39 -7c6.66699 0 13.5 0.333008 20.5 1s14.333 2.5 22 5.5s16.167 7.66699 25.5 14s19.666 15.166 30.999 26.499zM580.003 183.999c-16 -16 -30.665 -29 -43.998 -39
s-26 -18 -38 -24s-23.667 -10 -35 -12s-23.333 -3 -36 -3c-19.333 0 -38.333 3.16699 -57 9.5s-38 14.166 -58 23.499l-41 16.5c-14.667 5.66699 -29.334 8.5 -44.001 8.5c-6.66699 0 -13.5 -0.333008 -20.5 -1s-14.333 -2.66699 -22 -6s-16.167 -8.16602 -25.5 -14.499
s-19.666 -15.166 -30.999 -26.499l-53 54c16 16 30.667 29 44 39s26 18 38 24s23.667 10 35 12s23.333 3 36 3c14.667 0 28.667 -1.5 42 -4.5s26.666 -7.16699 39.999 -12.5l39 -16c12.667 -5.33301 25.667 -10.333 39 -15c14 -5.33301 27 -8 39 -8
c6.66699 0 13.5 0.333008 20.5 1s14.333 2.5 22 5.5s16.167 7.66699 25.5 14s19.666 15.166 30.999 26.499z" />
    <glyph glyph-name="notequal" unicode="&#x2260;" horiz-adv-x="692" 
d="M268 134l-83 -118l-50 35l58 83h-88v77h142l93 133h-235v77h289l79 113l50 -35l-55 -78h119v-77h-172l-94 -133h266v-77h-319z" />
    <glyph glyph-name="lessequal" unicode="&#x2264;" horiz-adv-x="857" 
d="M188 269l235 -232l-48 -50l-320 318l320 318l48 -50l-235 -232h604v-72h-604z" />
    <glyph glyph-name="greaterequal" unicode="&#x2265;" horiz-adv-x="857" 
d="M483 -13l-48 50l234 232h-604v72h604l-234 232l48 50l319 -318z" />
    <glyph glyph-name="lozenge" unicode="&#x25ca;" 
d="M512 348c0 -33.333 -1 -64.5 -3 -93.5s-6 -56 -12 -81s-14.333 -48 -25 -69s-24.667 -40.5 -42 -58.5c-17.333 -17.333 -38 -31.5 -62 -42.5s-53.333 -16.5 -88 -16.5s-64 5.5 -88 16.5s-44.667 25.167 -62 42.5c-17.333 18 -31.333 37.5 -42 58.5s-19 44 -25 69
s-10 52 -12 81s-3 60.167 -3 93.5s1 64.666 3 93.999s6 56.5 12 81.5s14.333 48 25 69s24.667 40.5 42 58.5c17.333 17.333 38 31.333 62 42s53.333 16 88 16s64 -5.33301 88 -16s44.667 -24.667 62 -42c17.333 -18 31.333 -37.5 42 -58.5s19 -44 25 -69
s10 -52.167 12 -81.5s3 -60.666 3 -93.999zM400 550c-8 18.667 -19.3301 34.9961 -33.9971 48.9961c-10 9.33301 -22.167 17 -36.5 23s-30.833 9 -49.5 9s-35.167 -3 -49.5 -9s-26.5 -13.667 -36.5 -23c-14 -13.333 -24.833 -28.666 -32.5 -45.999
s-13.334 -36.166 -17.001 -56.499s-5.83398 -41.666 -6.50098 -63.999s-1 -44.5 -1 -66.5v-57c0 -13.333 0.166992 -26.666 0.5 -39.999s1.16602 -26.333 2.49902 -39zM423.003 347.996c0 18.667 -0.169922 37.333 -0.50293 56s-1.16602 37 -2.49902 55l-257 -319
c4 -8 8.5 -15.667 13.5 -23s10.833 -14 17.5 -20c10 -9.33301 22.167 -17 36.5 -23s30.833 -9 49.5 -9s35.167 3 49.5 9s26.5 13.667 36.5 23c14 12.667 24.833 27.834 32.5 45.501s13.334 36.667 17.001 57s5.83398 41.666 6.50098 63.999s1 44.5 1 66.5v18z" />
    <glyph glyph-name="fi" unicode="&#xfb01;" horiz-adv-x="638" 
d="M361 652c-13.333 1.33301 -26.166 3.00098 -38.499 5.00098s-27.5 3 -45.5 3c-22.667 0 -40.334 -6.33301 -53.001 -19s-19 -29.334 -19 -50.001v-85h146v-72h-146v-434h-85v434h-92v72h92v90c0 18.667 3.5 36.334 10.5 53.001s17 31.167 30 43.5s28.5 22 46.5 29
s38 10.5 60 10.5c17.333 0 33.833 -0.833008 49.5 -2.5s30.5 -3.83398 44.5 -6.50098v-71zM452 622.001v100h99v-100h-99zM458 0.000976562v506h87v-506h-87z" />
    <glyph glyph-name="fl" unicode="&#xfb02;" horiz-adv-x="662" 
d="M361 652c-13.333 1.33301 -26.166 3.00098 -38.499 5.00098s-27.5 3 -45.5 3c-22.667 0 -40.334 -6.33301 -53.001 -19s-19 -29.334 -19 -50.001v-85h146v-72h-146v-434h-85v434h-92v72h92v90c0 18.667 3.5 36.334 10.5 53.001s17 31.167 30 43.5s28.5 22 46.5 29
s38 10.5 60 10.5c17.333 0 33.833 -0.833008 49.5 -2.5s30.5 -3.83398 44.5 -6.50098v-71zM627 0.000976562c-4 -1.33301 -9 -2.33301 -15 -3c-10 -2 -25 -3 -45 -3c-37.333 0 -64.333 10.667 -81 32s-25 52 -25 92v604h85v-599c0 -17.333 3.33301 -30.333 10 -39
s18.667 -13 36 -13h28c2.66699 0 5 0.333008 7 1v-72z" />
    <glyph glyph-name=".null" horiz-adv-x="0" 
 />
    <glyph glyph-name="nonmarkingreturn" horiz-adv-x="230" 
 />
    <glyph glyph-name="dotlessj" horiz-adv-x="283" 
d="M190 -71c0 -44 -11.166 -78.833 -33.499 -104.5s-57.5 -38.5 -105.5 -38.5c-13.333 0 -24.5 0.666992 -33.5 2s-19.833 4 -32.5 8v73c10.667 -2 21.167 -3.33301 31.5 -4s20.833 -1 31.5 -1c19.333 0 33.666 6.33301 42.999 19s14 27.667 14 45v578h85v-577z" />
    </font>
</defs>
</svg>
